Dream Journey 2016 ViE 720p HDrip AAC2.0 x264-Zin ~ Giấc Mộng Tây Du |

Thảo luận trong 'Phim SD' bắt đầu bởi v0minh, 23 Tháng sáu 2016.

  1. v0minh

    v0minh Active Member

    Dream Journey 2016 ViE 720p HDrip AAC2.0 x264-Zin

    Giấc Mộng Tây Du

    {Thuyết Minh}


    [​IMG]

    THÔNG TIN PHIM. Click HERE:
    Dream Journey 2016 - Trong trận chiến nảy lửa giữa Tôn Ngộ Không và Bạch Cốt Tinh, cả hai vô tình bị đưa đến thế kỉ 21, Tại đây, Ngộ Không trở thành bạn của Tiểu Kiếm - Người có khuôn mặt giông hệt Đường Tăng, Để quay về thời cổ đại. Ngộ Không phải chấp nhận "ở chung nhà" với Bạch Cốt Tinh đẫn đến nảy sinh tình cảm với nhau

    Format : Matroska
    Format version : Version 4 / Version 2
    File size : 1.48 GiB
    Duration : 1h 32mn
    Overall bit rate : 2 295 Kbps

    Video

    Width : 1 280 pixels
    Height : 544 pixels
    Display aspect ratio : 2.35:1


    Audio #1

    Bit rate : 100 Kbps
    Channel(s) : 2 channels
    Channel positions : Front: L R
    Sampling rate : 44.1 KHz
    Frame rate : 43.066 fps (1024 spf)
    Compression mode : Lossy
    Stream size : 66.0 MiB (4%)


    Audio #2
    Bit rate : 192 Kbps
    Channel(s) : 2 channels
    Sampling rate : 48.0 KHz
    Frame rate : 41.667 fps (1152 spf)
    Compression mode : Lossy
    Stream size : 126 MiB (8%)
    Language : Vietnamese

    SCREENSHOTs

    [​IMG][​IMG][​IMG][​IMG][​IMG][​IMG][​IMG][​IMG][​IMG]




Chia sẻ trang này