Europe 4K 2015 DOCU 2160p BluRay x265 10bit SDR DTS-HD MA.5.1-SWTYBLZ | Châu Âu

Thảo luận trong 'Tài Liệu - Khoa Học - Giáo Dục - Thể Thao' bắt đầu bởi gait12, 11 Tháng ba 2018.

  1. gait12

    gait12 Well-Known Member

    Europe 4K 2015 DOCU 2160p BluRay x265 10bit SDR DTS-HD MA.5.1-SWTYBLZ
    Châu Âu
    [​IMG]


    Mã:
    Video
    ID                                       : 1
    Format                                   : HEVC
    Format/Info                              : High Efficiency Video Coding
    Format profile                           : Main 10@L5.1@High
    Codec ID                                 : V_MPEGH/ISO/HEVC
    Duration                                 : 1 h 36 min
    Bit rate                                 : 45.6 Mb/s
    Width                                    : 3 840 pixels
    Height                                   : 2 160 pixels
    Display aspect ratio                     : 16:9
    Frame rate mode                          : Constant
    Frame rate                               : 23.976 (24000/1001) FPS
    Color space                              : YUV
    Chroma subsampling                       : 4:2:0
    Bit depth                                : 10 bits
    Bits/(Pixel*Frame)                       : 0.229
    Stream size                              : 30.8 GiB (94%)
    Title                                    : Europe.4K.2015.DOCU.2160p.BluRay.x265.10bit.SDR.DT  S-HD.MA.5.1-SWTYBLZ
    Writing library                          : x265 2.5+4-b4a5bcfe29c7:[Windows][GCC 4.9.3][64 bit] 10bit
    Encoding settings                        : cpuid=1173503 / frame-threads=16 / numa-pools=24,24,24,24 / wpp / no-pmode / no-pme / no-psnr / no-ssim / log-level=2 / input-csp=1 / input-res=3840x2160 / interlace=0 / total-frames=0 / level-idc=51 / high-tier=1 / uhd-bd=0 / ref=3 / no-allow-non-conformance / repeat-headers / annexb / aud / hrd / info / hash=0 / no-temporal-layers / no-open-gop / min-keyint=1 / keyint=24 / bframes=4 / b-adapt=2 / b-pyramid / bframe-bias=0 / rc-lookahead=25 / lookahead-slices=4 / scenecut=40 / no-intra-refresh / ctu=64 / min-cu-size=8 / no-rect / no-amp / max-tu-size=32 / tu-inter-depth=1 / tu-intra-depth=1 / limit-tu=0 / rdoq-level=0 / dynamic-rd=0.00 / no-ssim-rd / signhide / no-tskip / nr-intra=0 / nr-inter=0 / no-constrained-intra / strong-intra-smoothing / max-merge=2 / limit-refs=3 / no-limit-modes / me=1 / subme=2 / merange=57 / temporal-mvp / weightp / no-weightb / no-analyze-src-pics / deblock=0:0 / no-sao / no-sao-non-deblock / rd=3 / no-early-skip / rskip / no-fast-intra / no-tskip-fast / no-cu-lossless / no-b-intra / rdpenalty=0 / psy-rd=2.00 / psy-rdoq=0.00 / no-rd-refine / analysis-reuse-mode=0 / no-lossless / cbqpoffs=0 / crqpoffs=0 / rc=crf / crf=18.0 / qcomp=0.60 / qpstep=4 / stats-write=0 / stats-read=0 / vbv-maxrate=160000 / vbv-bufsize=160000 / vbv-init=0.9 / crf-max=0.0 / crf-min=0.0 / ipratio=1.40 / pbratio=1.30 / aq-mode=1 / aq-strength=1.00 / cutree / zone-count=0 / no-strict-cbr / qg-size=32 / no-rc-grain / qpmax=69 / qpmin=0 / no-const-vbv / sar=1 / overscan=0 / videoformat=5 / range=0 / colorprim=2 / transfer=2 / colormatrix=2 / chromaloc=0 / display-window=0 / max-cll=0,0 / min-luma=0 / max-luma=1023 / log2-max-poc-lsb=8 / vui-timing-info / vui-hrd-info / slices=1 / opt-qp-pps / opt-ref-list-length-pps / no-multi-pass-opt-rps / scenecut-bias=0.05 / no-opt-cu-delta-qp / no-aq-motion / no-hdr / no-hdr-opt / no-dhdr10-opt / analysis-reuse-level=5 / scale-factor=0 / refine-intra=0 / refine-inter=0 / refine-mv=0 / no-limit-sao / ctu-info=0
    Default                                  : Yes
    Forced                                   : No
    
    Audio #1
    ID                                       : 2
    Format                                   : DTS
    Format/Info                              : Digital Theater Systems
    Format profile                           : MA / Core
    Codec ID                                 : A_DTS
    Duration                                 : 1 h 36 min
    Bit rate mode                            : Variable / Constant
    Bit rate                                 : 2 361 kb/s / 1 509 kb/s
    Channel(s)                               : 6 channels
    Channel positions                        : Front: L C R, Side: L R, LFE
    Sampling rate                            : 48.0 kHz
    Frame rate                               : 93.750 FPS (512 SPF)
    Bit depth                                : 16 bits
    Compression mode                         : Lossless / Lossy
    Stream size                              : 1.59 GiB (5%)
    Title                                    : Europe.4K.2015.DOCU.2160p.BluRay.x265.10bit.SDR.DT  S-HD.MA.5.1-SWTYBLZ
    Language                                 : English
    Default                                  : Yes
    Forced                                   : No
    
    Audio #2
    ID                                       : 3
    Format                                   : AC-3
    Format/Info                              : Audio Coding 3
    Codec ID                                 : A_AC3
    Duration                                 : 1 h 36 min
    Bit rate mode                            : Constant
    Bit rate                                 : 640 kb/s
    Channel(s)                               : 6 channels
    Channel positions                        : Front: L C R, Side: L R, LFE
    Sampling rate                            : 48.0 kHz
    Frame rate                               : 31.250 FPS (1536 SPF)
    Bit depth                                : 16 bits
    Compression mode                         : Lossy
    Stream size                              : 442 MiB (1%)
    Title                                    : Europe.4K.2015.DOCU.2160p.BluRay.x265.10bit.SDR.DT  S-HD.MA.5.1-SWTYBLZ
    Language                                 : English
    Service kind                             : Complete Main
    Default                                  : No
    Forced                                   : No
    
    Text #1
    ID                                       : 4
    Format                                   : UTF-8
    Codec ID                                 : S_TEXT/UTF8
    Codec ID/Info                            : UTF-8 Plain Text
    Duration                                 : 1 h 35 min
    Bit rate                                 : 81 b/s
    Count of elements                        : 1002
    Stream size                              : 57.1 KiB (0%)
    Title                                    : English-SRT
    Language                                 : English
    Default                                  : Yes
    Forced                                   : No
    
    Text #2
    ID                                       : 5
    Format                                   : PGS
    Muxing mode                              : zlib
    Codec ID                                 : S_HDMV/PGS
    Codec ID/Info                            : Picture based subtitle format used on BDs/HD-DVDs
    Duration                                 : 1 h 35 min
    Bit rate                                 : 52.5 kb/s
    Count of elements                        : 2004
    Stream size                              : 35.9 MiB (0%)
    Title                                    : English-PGS
    Language                                 : English
    Default                                  : No
    Forced                                   : No
    
    Menu
    00:00:00.000                             : en:Chapter 1
    00:07:50.595                             : en:Chapter 2
    00:15:14.663                             : en:Chapter 3
    00:22:30.307                             : en:Chapter 4
    00:30:59.232                             : en:Chapter 5
    00:43:02.913                             : en:Chapter 6
    00:48:58.518                             : en:Chapter 7
    00:55:56.478                             : en:Chapter 8
    01:07:37.053                             : en:Chapter 9
    01:12:55.913                             : en:Chapter 10
    01:22:14.721                             : en:Chapter 11
    01:29:03.588                             : en:Chapter 12
    01:36:28.949                             : en:Chapter 13
    
    
    





    [​IMG][​IMG][​IMG][​IMG][​IMG][​IMG]













  2. heherockits

    heherockits New Member

    đụ mẹ link chết hết trơn rồi kìa con chó, đụ má đăng cái gì cũng phải có trách nhiệm chút chứ. Mày đăng lên đó để chơi troll ae ah ?

Chia sẻ trang này