Guilty Crown 2011 mHD BluRay AAC AVC-Ateam ~ Vương Miện Tội Lỗi | Yuki Kaji, Ai Kayano, Austin Tindle (Phụ Đề)

Thảo luận trong 'Phim Hoạt Hình' bắt đầu bởi v0minh, 6 Tháng sáu 2016.

  1. v0minh

    v0minh Active Member

    Guilty Crown 2011 mHD BluRay AAC AVC-Ateam

    Vương Miện Tội Lỗi

    {Phụ đề tiếng Việt}

    (Yuki Kaji, Ai Kayano, Austin Tindle)

    [​IMG] Ratings: 7.4/10 from 1,856 users

    [​IMG]

    THÔNG TIN PHIM. Click HERE:
    Guilty Crown 2011 là một bộ Anime nói về Nhật Bản vào năm 2039, 10 năm sau khi “Apocalypse Virus” tàn phá đất đai, tài nguyên và Nhật Bản chỉ sống sót nhờ vào trợ giúp của các quốc gia khác. Từ sự trợ giúp đó, giờ đây 10 năm sau Nhật Bản hoàn toàn phụ thuộc vào lực lượng quân sự ngoại quốc. Câu chuyện xoay quanh Shu Ouma, một học sinh trung học năm thứ hai 17 tuổi khó gần, luôn tự hỏi mình có thể làm gì cho đất nước, và một đối thủ 17 tuổi tên là Gai Tsutsugami là một “Jiikundō” phi công trẻ trong một tổ chức du kích.

    English plot

    After the outbreak of the unidentified virus "Lost Christmas" in 2029, Japan has been under the control of a multi-nation organization called GHQ. Ohma Shu is a 17 year old boy who has a psychic power in his right hand. He can use the power "Ability of King" to extract tools or weapons from his friends. He has been avoiding making trouble for others but his life changes when he meets a girl Yuzuriha Inori, a member of a resistance guerrilla group called "Funeral Parlor", whose members pilot mecha weapons to fight against the government.


    General
    Complete name : F:\Guilty Crown\Guilty Crown Episode 001 - Xem online Guilty Crown Episode 001.MP4
    Format : MPEG-4
    Format profile : Base Media / Version 2
    Codec ID : mp42
    File size : 279 MiB
    Duration : 22mn 52s
    Overall bit rate mode : Variable
    Overall bit rate : 1 705 Kbps
    Encoded date : UTC 2013-10-28 09:56:04
    Tagged date : UTC 2013-10-28 09:56:04
    gsst : 7516
    gstd : 1380053
    gssd : BADC219E2HH1389631544786142
    gshh : r6---sn-o097znek.googlevideo.com

    Video
    ID : 1
    Format : AVC
    Format/Info : Advanced Video Codec
    Format profile : High@L3.1
    Format settings, CABAC : Yes
    Format settings, ReFrames : 1 frame
    Format settings, GOP : M=1, N=60
    Codec ID : avc1
    Codec ID/Info : Advanced Video Coding
    Duration : 22mn 52s
    Bit rate : 1 510 Kbps
    Maximum bit rate : 5 831 Kbps
    Width : 1 280 pixels
    Height : 720 pixels
    Display aspect ratio : 16:9
    Frame rate mode : Constant
    Frame rate : 23.976 fps
    Color space : YUV
    Chroma subsampling : 4:2:0
    Bit depth : 8 bits
    Scan type : Progressive
    Bits/(Pixel*Frame) : 0.068
    Stream size : 247 MiB (89%)
    Tagged date : UTC 2013-10-28 09:56:43

    Audio
    ID : 2
    Format : AAC
    Format/Info : Advanced Audio Codec
    Format profile : LC
    Codec ID : 40
    Duration : 22mn 52s
    Bit rate mode : Variable
    Bit rate : 192 Kbps
    Maximum bit rate : 202 Kbps
    Channel(s) : 2 channels
    Channel positions : Front: L R
    Sampling rate : 44.1 KHz
    Compression mode : Lossy
    Stream size : 31.4 MiB (11%)
    Title : IsoMedia File Produced by Google, 5-11-2011
    Encoded date : UTC 2013-10-28 09:56:32
    Tagged date : UTC 2013-10-28 09:56:43

    SCREENSHOTs

    [​IMG]




    Phụ Đề
    (đã có bản tiếng Việt)
    https://subscene.com/subtitles/guilty-crown-giruti-kuraun


    Last edited: 19 Tháng bảy 2016
  2. s0987154069

    s0987154069 New Member

    UP lại bạn ơi ko thấy link :(. Mong sớm up lại thanks.

Chia sẻ trang này