[Hài hước] Journey To The West: Conquering The Demons 2013 DVDRip Xvid AC3-SmY - Tây Du Kí : Mối Tìn

Thảo luận trong 'Hành động - Chiến tranh - Viễn tưởng' bắt đầu bởi phonghanh, 23 Tháng hai 2013.

  1. phonghanh

    phonghanh Moderator

    [​IMG]



    Format : Matroska
    File size : 1.09 GiB
    Duration : 1h 49mn
    Overall bit rate : 1 426 Kbps
    Encoded date : UTC 2013-02-21 09:03:09
    Writing application : mkvmerge v5.5.0 ('Healer') built on Apr 6 2012 21:43:24
    Writing library : libebml v1.2.3 + libmatroska v1.3.0
    Video #1
    ID : 1
    Format : xvid
    Codec ID : xvid
    Duration : 1h 49mn
    Bit rate : 1 173 Kbps
    Width : 720 pixels
    Height : 324 pixels
    Display aspect ratio : 2.222
    Frame rate : 29.970 fps
    Resolution : 24 bits
    Bits/(Pixel*Frame) : 0.168
    Stream size : 921 MiB (82%)
    Audio #2
    ID : 2
    Format : AC-3
    Format/Info : Audio Coding 3
    Codec ID : A_AC3
    Duration : 1h 49mn
    Bit rate mode : Constant
    Bit rate : 224 Kbps
    Channel(s) : 2 channels
    Channel positions : L R
    Sampling rate : 48.0 KHz
    Stream size : 76 MiB (16%)


    [​IMG]






  2. s0974098429

    s0974098429 New Member

    Phim hay quá. Tuy tôn ngộ không hình dáng hơi xấu nhưng cốt chuyện và hành động quá hay, cảm động. Hài hước chỉ là thêm thắt 1 tí. còn lại toàn đấm nhau với tình cảm mà thớt ơi :D

Chia sẻ trang này