[Hành Động | 1link] Dracula Untold 2014 720p HDRip x264 AAC-RARBG - Ác Quỷ Dracula (Luke Evans, Dominic Cooper, Samantha Barks)

Thảo luận trong 'Phim 720p' bắt đầu bởi help4share, 11 Tháng mười một 2014.

  1. help4share

    help4share Super Moderator

    Dracula Untold 2014 720p HDRip x264 AAC-RARBG - Ác Quỷ Dracula (Luke Evans, Dominic Cooper, Samantha Barks)
    [​IMG]
    Mã:
    Video
    ID                                       : 1
    Format                                   : AVC
    Format/Info                              : Advanced Video Codec
    Format profile                           : High@L4.1
    Format settings, CABAC                   : Yes
    Format settings, ReFrames                : 4 frames
    Codec ID                                 : avc1
    Codec ID/Info                            : Advanced Video Coding
    Duration                                 : 1h 31mn
    Bit rate                                 : 4 000 Kbps
    Width                                    : 1 280 pixels
    Height                                   : 720 pixels
    Display aspect ratio                     : 16:9
    Frame rate mode                          : Constant
    Frame rate                               : 40.000 fps
    Color space                              : YUV
    Chroma subsampling                       : 4:2:0
    Bit depth                                : 8 bits
    Scan type                                : Progressive
    Bits/(Pixel*Frame)                       : 0.109
    Stream size                              : 2.55 GiB (97%)
    Writing library                          : x264 core 142 r2479M dd79a61
    Encoding settings                        : cabac=1 / ref=4 / deblock=1:-1:-1 / analyse=0x3:0x113 / me=umh / subme=9 / psy=1 / psy_rd=1.00:0.15 / mixed_ref=1 / me_range=16 / chroma_me=1 / trellis=2 / 8x8dct=1 / cqm=0 / deadzone=21,11 / fast_pskip=1 / chroma_qp_offset=-3 / threads=32 / lookahead_threads=4 / sliced_threads=0 / nr=0 / decimate=1 / interlaced=0 / bluray_compat=0 / constrained_intra=0 / bframes=3 / b_pyramid=2 / b_adapt=2 / b_bias=0 / direct=3 / weightb=1 / open_gop=0 / weightp=2 / keyint=250 / keyint_min=25 / scenecut=40 / intra_refresh=0 / rc_lookahead=50 / rc=abr / mbtree=1 / bitrate=4000 / ratetol=1.0 / qcomp=0.60 / qpmin=0 / qpmax=69 / qpstep=4 / vbv_maxrate=31250 / vbv_bufsize=31250 / nal_hrd=none / filler=0 / ip_ratio=1.40 / aq=2:1.00
    
    Audio
    ID                                       : 2
    Format                                   : AAC
    Format/Info                              : Advanced Audio Codec
    Format profile                           : LC
    Codec ID                                 : 40
    Duration                                 : 1h 31mn
    Bit rate mode                            : Constant
    Bit rate                                 : 128 Kbps
    Channel(s)                               : 2 channels
    Channel positions                        : Front: L R
    Sampling rate                            : 44.1 KHz
    Compression mode                         : Lossy
    Stream size                              : 83.8 MiB (3%)
    Language                                 : English
    [​IMG]
    [​IMG]
    [​IMG]
    [​IMG]
    nghialtv88 and s01679824496 like this.
  2. nghialtv88

    nghialtv88 Member

    hay quá cảm ơn bác, tiếc là chỉ HDRip, khi nào có bản HD Bluray coi còn sướng nữa.

Chia sẻ trang này