[Hành Động | Phiêu Lưu] The Kid Who Would Be King 2019 1080p BluRay DTS-ES x264-DRONES ~ Cậu Bé Và Sứ Mệnh Thiên Sứ

Thảo luận trong 'Phim 1080p' bắt đầu bởi hungdaita, 14 Tháng tư 2019.

  1. hungdaita

    hungdaita Well-Known Member

    The Kid Who Would Be King 2019 1080p BluRay DTS-ES x264-DRONES
    {Internal}
    Cậu Bé Và Sứ Mệnh Thiên Sứ
    Louis Ashbourne Serkis, Denise Gough, Rebecca Ferguson


    [​IMG]


    [​IMG]
    [​IMG]




    Format : Matroska
    Format version : Version 4 / Version 2
    File size : 8.74 GiB
    Duration : 2h 0mn
    Overall bit rate : 10.4 Mbps
    Encoded date : UTC 2019-04-07 19:16:12
    Writing application : mkvmerge v31.0.0 ('Dolores In A Shoestand') 64-bit
    Writing library : libebml v1.3.6 + libmatroska v1.4.9
    DURATION : 02:00:08.246000000
    NUMBER_OF_FRAMES : 675773
    NUMBER_OF_BYTES : 1359655276
    _STATISTICS_WRITING_APP : mkvmerge v31.0.0 ('Dolores In A Shoestand') 64-bit
    _STATISTICS_WRITING_DATE_UTC : 2019-04-07 19:16:12
    _STATISTICS_TAGS : BPS DURATION NUMBER_OF_FRAMES NUMBER_OF_BYTES

    Video
    ID : 1
    Format : AVC
    Format/Info : Advanced Video Codec
    Format profile : High@L4.1
    Format settings, CABAC : Yes
    Format settings, ReFrames : 5 frames
    Codec ID : V_MPEG4/ISO/AVC
    Duration : 2h 0mn
    Bit rate : 8 912 Kbps
    Width : 1 920 pixels
    Height : 808 pixels
    Display aspect ratio : 2.40:1
    Frame rate mode : Constant
    Frame rate : 23.976 fps
    Color space : YUV
    Chroma subsampling : 4:2:0
    Bit depth : 8 bits
    Scan type : Progressive
    Bits/(Pixel*Frame) : 0.240
    Stream size : 7.30 GiB (84%)
    Writing library : x264 core 157 r2969 d4099dd
    Encoding settings : cabac=1 / ref=5 / deblock=1:-3:-3 / analyse=0x3:0x113 / me=umh / subme=8 / psy=1 / psy_rd=1.00:0.00 / mixed_ref=1 / me_range=16 / chroma_me=1 / trellis=1 / 8x8dct=1 / cqm=0 / deadzone=21,11 / fast_pskip=1 / chroma_qp_offset=-2 / threads=24 / lookahead_threads=4 / sliced_threads=0 / nr=0 / decimate=1 / interlaced=0 / bluray_compat=0 / constrained_intra=0 / bframes=3 / b_pyramid=2 / b_adapt=1 / b_bias=0 / direct=3 / weightb=1 / open_gop=0 / weightp=2 / keyint=250 / keyint_min=23 / scenecut=40 / intra_refresh=0 / rc_lookahead=50 / rc=2pass / mbtree=1 / bitrate=8912 / ratetol=1.0 / qcomp=0.60 / qpmin=0 / qpmax=69 / qpstep=4 / cplxblur=20.0 / qblur=0.5 / ip_ratio=1.40 / aq=1:1.00
    Language : English
    Default : Yes
    Forced : No
    DURATION : 02:00:08.243000000
    NUMBER_OF_FRAMES : 172825
    NUMBER_OF_BYTES : 8020570357
    _STATISTICS_WRITING_APP : mkvmerge v31.0.0 ('Dolores In A Shoestand') 64-bit
    _STATISTICS_WRITING_DATE_UTC : 2019-04-07 19:16:12
    _STATISTICS_TAGS : BPS DURATION NUMBER_OF_FRAMES NUMBER_OF_BYTES

    Audio
    ID : 2
    Format : DTS
    Format/Info : Digital Theater Systems
    Format profile : ES
    Mode : 16
    Format settings, Endianness : Big
    Codec ID : A_DTS
    Duration : 2h 0mn
    Bit rate mode : Constant
    Bit rate : 1 509 Kbps
    Channel(s) : 6 channels
    Channel positions : Front: L C R, Side: L R, LFE
    Sampling rate : 48.0 KHz
    Bit depth : 24 bits
    Compression mode : Lossy
    Stream size : 1.27 GiB (14%)
    Language : English
    Default : Yes
    Forced : No




    Cậu nam sinh người Anh Alexander Elliot, người đã rút thanh kiếm Excalibur của vua Arthur khỏi lòng đất, khiến cõi trần gian gặp lâm nguy. Cậu bé đã tập hợp những những người bạn thân nhất của mình, để cùng nhau chống lại kẻ phản diện từ thời Trung Cổ Morgana. Ả ta đang triệu hồi đội quân quái vật cổ xưa nhằm âm mưu thống trị thế giới …



Chia sẻ trang này