[Hành Động | Viễn Tưởng | 1 Link] The Darkest Hour (2011) 3D 1080p H-SBS Blu-ray DD5.1 x264-HDDamMe

Thảo luận trong 'Download phim 3D' bắt đầu bởi mrtom, 2 Tháng tư 2012.

  1. mrtom

    mrtom New Member

    The Darkest Hour (2011) 3D 1080p H-SBS Blu-ray DD5.1 x264-HDDamMe

    Giờ Đen Tối

    [​IMG]

    Mã:
    [B]Tên phim:[/B] The Darkest Hour (2011)
    [B]Đạo diễn:[/B] Chris Gorak
    [B]Kịch bản:[/B] Jon Spaihts (screenplay), Leslie Bohem (story)
    [B]Diễn viên chính:[/B] Emile Hirsch, Olivia Thirlby and Max Minghella
    [B]Thể loại:[/B] Action | Horror | Sci-Fi 
    [B]Đánh giá:[/B] 4.9/10 from 6,051 users 
    [B]Thời lượng:[/B] 89 mins
    [B]Ngôn ngữ:[/B] English
    [B]Quốc gia:[/B] USA | Russia
    
    [​IMG]
    Mã:
    Format : Matroska
    File size : 7.33 GiB
    Duration : 1h 28mn
    Overall bit rate : 11.8 Mbps
    
    Video
    Format : AVC
    Duration : 1h 28mn
    Bit rate mode : Variable
    Bit rate : 10.9 Mbps
    Maximum bit rate : 40.0 Mbps
    Width : 1 920 pixels
    Height : 1 080 pixels
    Display aspect ratio : 16:9
    Frame rate : 23.976 fps
    Scan type : Progressive
    Stream size : 6.79 GiB (93%)
    
    
    Audio
    Format : AC-3
    Codec ID : A_AC3
    Duration : 1h 28mn
    Bit rate : 640 Kbps
    Channel(s) : 6 channels
    Channel positions : Front: L C R, Side: L R, LFE
    Stream size : 407 MiB (5%)
    Language : English
    
    [​IMG]

    [​IMG] [​IMG]
    [​IMG] [​IMG]
    [​IMG] [​IMG]

    View fullscreens:
    Mã:
    [CENTER]http://www.imagebam.com/gallery/gtzlp0ghg0zyg25bhdx5jzeaq5g2yap8/[/CENTER]
    
    [​IMG]
    One Link ~ 7,3GB:
    Mã:
    [CENTER][URL="http://up.4share.vn/f/380a0a0f09010c0b/The.Darkest.Hour.2011.3D.H-SBS.1080p-HDDamMe___Mr.Tom-HDVN.mkv.file"]The Darkest Hour (2011) 3D 1080p H-SBS Blu-ray DD5.1 x264-HDDamMe[/URL][/CENTER]
    



    Download bản 720p
    Download bản 1080p


    Sub Việt:
    Mã:
    [CENTER][URL="http://subscene.com/vietnamese/The-Darkest-Hour-2011/subtitle-558286.aspx"]The Darkest Hour (2011) 3D 1080p H-SBS Blu-ray DD5.1 x264-HDDamMe[/URL][/CENTER]
    






    Last edited: 2 Tháng tư 2012
  2. dudinh2001

    dudinh2001 New Member

    fix lại dùm đi phim 1 đằng link 1 nẻo
  3. mrtom

    mrtom New Member

    Sr bạn, do tên team giống nhau nên mình copy nhầm. Đã edit link rồi nhé. Thanks bạn.
  4. angels.wingspan

    angels.wingspan New Member

    Good lắm bạn, chất lượng cực tốt. Cố gắn phát huy nha. Chúc bạn được
  5. s01687651997

    s01687651997 New Member

    link die, fix lại dùm mình nhé :(

Chia sẻ trang này