[ Hành Động | Viễn Tưởng ] Seventh Son 2014 720p HC WEBRip XviD MP3-RARBG | Đứa Con Thứ 7

Thảo luận trong 'Hành động - Chiến tranh - Viễn tưởng' bắt đầu bởi gait12, 24 Tháng ba 2015.

  1. gait12

    gait12 Well-Known Member

    Seventh Son 2014 720p HC WEBRip XviD MP3-RARBG
    Đứa Con Thứ 7
    (Ben Barnes, Julianne Moore, Jeff Bridges)


    [​IMG]


    [​IMG]

    Mã:
    
    Format                                   : AVIFormat/Info                              : Audio Video Interleave
    Format profile                           : OpenDML
    File size                                : 2.86 GiB
    Duration                                 : 1h 42mn
    Overall bit rate                         : 4 000 Kbps
    Movie name                               : RARBG.COM - Seventh.Son.2015.720p.HC.WEBRip.XviD.MP3-RARBG
    Writing library                          : VirtualDub build 35491/release
    Comment                                  : RARBG.COM - Seventh.Son.2015.720p.HC.WEBRip.XviD.MP3-RARBG
    
    
    Video
    ID                                       : 0
    Format                                   : MPEG-4 Visual
    Format profile                           : Simple@L5
    Format settings, BVOP                    : No
    Format settings, QPel                    : No
    Format settings, GMC                     : No warppoints
    Format settings, Matrix                  : Default (H.263)
    Codec ID                                 : XVID
    Codec ID/Hint                            : XviD
    Duration                                 : 1h 42mn
    Bit rate                                 : 3 794 Kbps
    Width                                    : 1 280 pixels
    Height                                   : 532 pixels
    Display aspect ratio                     : 2.40:1
    Frame rate                               : 24.000 fps
    Color space                              : YUV
    Chroma subsampling                       : 4:2:0
    Bit depth                                : 8 bits
    Scan type                                : Progressive
    Compression mode                         : Lossy
    Bits/(Pixel*Frame)                       : 0.232
    Stream size                              : 2.71 GiB (95%)
    Writing library                          : Lavc56.20.100
    
    
    Audio
    ID                                       : 1
    Format                                   : MPEG Audio
    Format version                           : Version 1
    Format profile                           : Layer 3
    Mode                                     : Joint stereo
    Mode extension                           : MS Stereo
    Codec ID                                 : 55
    Codec ID/Hint                            : MP3
    Duration                                 : 1h 42mn
    Bit rate mode                            : Constant
    Bit rate                                 : 192 Kbps
    Channel(s)                               : 2 channels
    Sampling rate                            : 44.1 KHz
    Compression mode                         : Lossy
    Stream size                              : 141 MiB (5%)
    Alignment                                : Aligned on interleaves
    Interleave, duration                     : 26 ms (0.63 video frame)
    Interleave, preload duration             : 522 ms
    Writing library                          : LAME3.99.5
    
    

    [​IMG]

    Bộ phim xoay quanh nhân vật chính Tom Ward, đứa con trai thứ bảy của người cha cũng là con trai thứ bảy trong gia đình. Cậu được chọn để trở thành người chống lại các thế lực đen tối và cứu thoát nhân loại. Thực tế là trong suốt nhiều thế kỷ qua, loài người vẫn được âm thầm bảo vệ khỏi quỷ dữ và các thế lực siêu nhiên bởi các hiệp sỹ của hội Falcon Knights. Các chiến binh Falcon Knights đã bắt giam mụ phù thủy hung ác nhiều năm trước. Và giờ đây, mụ ta đã thoát ra khỏi phong ấn và đang triệu tập đám môn đệ ma quỷ để trả thù, sẵn sàng trút cơn thịnh nộ đã kìm nén bấy lâu lên vương quốc.



    [​IMG]

    [​IMG][​IMG][​IMG][​IMG]

    [​IMG]




    [​IMG]




    4Share.vn



    Subtitles

Chia sẻ trang này