[ Hành Động | Viễn Tưởng ] Seventh Son 2014 PROPER 1080p HC WEBRip x264 AAC2.0-RARBG | Đứa Con Thứ 7

Thảo luận trong 'Hành động - Chiến tranh - Viễn tưởng' bắt đầu bởi gait12, 24 Tháng ba 2015.

  1. gait12

    gait12 Well-Known Member

    Seventh Son 2014 PROPER 1080p HC WEBRip x264 AAC2.0-RARBG
    Đứa Con Thứ 7
    (Ben Barnes, Julianne Moore, Jeff Bridges)


    [​IMG]


    [​IMG]

    Mã:
    
    VideoID                                       : 1
    Format                                   : AVC
    Format/Info                              : Advanced Video Codec
    Format profile                           : High@L4.1
    Format settings, CABAC                   : Yes
    Format settings, ReFrames                : 4 frames
    Codec ID                                 : avc1
    Codec ID/Info                            : Advanced Video Coding
    Duration                                 : 1h 42mn
    Bit rate                                 : 3 874 Kbps
    Width                                    : 1 920 pixels
    Height                                   : 798 pixels
    Display aspect ratio                     : 2.40:1
    Frame rate mode                          : Constant
    Frame rate                               : 24.000 fps
    Color space                              : YUV
    Chroma subsampling                       : 4:2:0
    Bit depth                                : 8 bits
    Scan type                                : Progressive
    Bits/(Pixel*Frame)                       : 0.105
    Stream size                              : 2.77 GiB (94%)
    Title                                    : Seventh.Son.2015.PROPER.1080p.HC.WEBRip.x264.AAC2.  0-RARBG
    
    Audio
    ID                                       : 2
    Format                                   : AAC
    Format/Info                              : Advanced Audio Codec
    Format profile                           : LC
    Codec ID                                 : 40
    Duration                                 : 1h 42mn
    Bit rate mode                            : Constant
    Bit rate                                 : 224 Kbps
    Channel(s)                               : 2 channels
    Channel positions                        : Front: L R
    Sampling rate                            : 44.1 KHz
    Compression mode                         : Lossy
    Stream size                              : 164 MiB (5%)
    Title                                    : Seventh.Son.2015.PROPER.1080p.HC.WEBRip.x264.AAC2.  0-RARBG
    
    

    [​IMG]

    Bộ phim xoay quanh nhân vật chính Tom Ward, đứa con trai thứ bảy của người cha cũng là con trai thứ bảy trong gia đình. Cậu được chọn để trở thành người chống lại các thế lực đen tối và cứu thoát nhân loại. Thực tế là trong suốt nhiều thế kỷ qua, loài người vẫn được âm thầm bảo vệ khỏi quỷ dữ và các thế lực siêu nhiên bởi các hiệp sỹ của hội Falcon Knights. Các chiến binh Falcon Knights đã bắt giam mụ phù thủy hung ác nhiều năm trước. Và giờ đây, mụ ta đã thoát ra khỏi phong ấn và đang triệu tập đám môn đệ ma quỷ để trả thù, sẵn sàng trút cơn thịnh nộ đã kìm nén bấy lâu lên vương quốc.



    [​IMG]

    [​IMG][​IMG][​IMG][​IMG]

    [​IMG]




    [​IMG]




    4Share.vn


    Subtitles

Chia sẻ trang này