[Hành Động] X-Men Days of Future Past 2014 720p HD x264 AC3-R33M - Dị Nhân 6: Ngày Cũ Của Tương Lai

Thảo luận trong 'Hành động - Chiến tranh - Viễn tưởng' bắt đầu bởi kulee, 7 Tháng tám 2014.

  1. kulee

    kulee Moderator

    X-Men Days of Future Past 2014 720p HD x264 AC3-R33M
    Dị Nhân 6: Trở Về Quá Khứ
    Hugh Jackman, James McAvoy, Michael Fassbender, Jennifer Lawrence
    Rating: 9.1 (8,782 votes)[​IMG]



    [​IMG]


    [​IMG]
    Mã:
    The X-Men send Wolverine to the past in a desperate effort to change history and prevent an event that results in doom for both humans and mutants.
    
    General
    Complete name                            : X-Men Days of Future Past 2014 720p HD x264 AC3-R33M.mkv
    Format                                   : Matroska
    Format version                           : Version 2
    File size                                : 3.54 GiB
    Duration                                 : 2h 6mn
    Overall bit rate mode                    : Variable
    Overall bit rate                         : 4 003 Kbps
    Encoded date                             : UTC 2014-06-04 01:19:01
    Writing application                      : mkvmerge v6.8.0 ('Theme for Great Cities') 32bit built on Mar  2 2014 21:27:07
    Writing library                          : libebml v1.3.0 + libmatroska v1.4.1
    
    Video
    ID                                       : 1
    Format                                   : AVC
    Format/Info                              : Advanced Video Codec
    Format profile                           : High@L4.1
    Format settings, CABAC                   : Yes
    Format settings, ReFrames                : 3 frames
    Codec ID                                 : V_MPEG4/ISO/AVC
    Duration                                 : 2h 6mn
    Bit rate mode                            : Variable
    Bit rate                                 : 3 731 Kbps
    Maximum bit rate                         : 40.0 Mbps
    Width                                    : 1 280 pixels
    Height                                   : 544 pixels
    Display aspect ratio                     : 2.35:1
    Frame rate mode                          : Constant
    Frame rate                               : 25.000 fps
    Color space                              : YUV
    Chroma subsampling                       : 4:2:0
    Bit depth                                : 8 bits
    Scan type                                : Progressive
    Bits/(Pixel*Frame)                       : 0.214
    Stream size                              : 3.30 GiB (93%)
    Writing library                          : x264 core 142 r2409 d6b4e63
    
    Audio
    ID                                       : 2
    Format                                   : AC-3
    Format/Info                              : Audio Coding 3
    Mode extension                           : CM (complete main)
    Format settings, Endianness              : Big
    Codec ID                                 : A_AC3
    Duration                                 : 2h 6mn
    Bit rate mode                            : Constant
    Bit rate                                 : 192 Kbps
    Channel(s)                               : 2 channels
    Channel positions                        : Front: L R
    Sampling rate                            : 48.0 KHz
    Bit depth                                : 16 bits
    Compression mode                         : Lossy
    Stream size                              : 174 MiB (5%)
    Language                                 : English
    Default                                  : Yes
    Forced                                   : No
    
    Text
    ID                                       : 3
    Format                                   : UTF-8
    Codec ID                                 : S_TEXT/UTF8
    Codec ID/Info                            : UTF-8 Plain Text
    Language                                 : English
    Default                                  : Yes
    Forced                                   : Yes
    Imdb                                   : http://www.imdb.com/title/tt1877832
    [​IMG]
    [​IMG]
    [​IMG]
    [​IMG]
    [​IMG]
    [​IMG]
    [​IMG]


    [​IMG]
    [​IMG]
    [video=youtube;gsjtg7m1MMM]

    1 Link ~ 3,54GB
    Bấm Thank Để Thấy Link

    [​IMG]
    [​IMG]
    SUB
    [​IMG]

    Kho Phim Khủng HD BluRay Update Hằng Ngày

    [​IMG]

Chia sẻ trang này