[Hành Động] X-Men: Days of Future Past 2014 New 720p HDCAM x264 AC3-TiTAN - Dị Nhân 6: Ngày Cũ Của Tương Lai

Thảo luận trong 'Hành động - Chiến tranh - Viễn tưởng' bắt đầu bởi kulee, 5 Tháng sáu 2014.

  1. kulee

    kulee Moderator

    X-Men: Days of Future Past 2014 New 720p HDCAM x264 AC3-TiTAN
    Dị Nhân 6: Trở Về Quá Khứ
    Hugh Jackman, James McAvoy, Michael Fassbender, Jennifer Lawrence
    Rating: 9.1 (8,782 votes)[​IMG]



    [​IMG]


    [​IMG]
    Mã:
    Source: R6 VOD/SMY
    
    OK, Very nice new source.. Labeled a VOD. Is very nice quality but more like a really nice cam..
    
    General
    
    Format                                   : Matroska
    Format version                           : Version 2
    File size                                : 2.57 GiB
    Duration                                 : 2h 6mn
    Overall bit rate mode                    : Variable
    Overall bit rate                         : 2 908 Kbps
    Encoded date                             : UTC 2014-06-04 09:58:26
    Writing application                      : mkvmerge v6.5.0 ('Isn't she lovely'wink.gif built on Oct 20 2013 12:50:05
    Writing library                          : libebml v1.3.0 + libmatroska v1.4.1
    
    Video
    ID                                       : 1
    Format                                   : AVC
    Format/Info                              : Advanced Video Codec
    Format profile                           : High@L4.1
    Format settings, CABAC                   : Yes
    Format settings, ReFrames                : 3 frames
    Codec ID                                 : V_MPEG4/ISO/AVC
    Duration                                 : 2h 6mn
    Bit rate mode                            : Variable
    Bit rate                                 : 2 714 Kbps
    Maximum bit rate                         : 40.0 Mbps
    Width                                    : 1 280 pixels
    Height                                   : 534 pixels
    Display aspect ratio                     : 2.40:1
    Frame rate mode                          : Constant
    Frame rate                               : 25.000 fps
    Color space                              : YUV
    Chroma subsampling                       : 4:2:0
    Bit depth                                : 8 bits
    Scan type                                : Progressive
    Bits/(Pixel*Frame)                       : 0.159
    Stream size                              : 2.35 GiB (91%)
    Writing library                          : x264 core 142 r2431 ac76440
    Default                                  : Yes
    Forced                                   : No
    Color primaries                          : BT.709
    Transfer characteristics                 : BT.709
    Matrix coefficients                      : BT.709
    
    Audio
    ID                                       : 2
    Format                                   : AC-3
    Format/Info                              : Audio Coding 3
    Mode extension                           : CM (complete main)
    Format settings, Endianness              : Big
    Codec ID                                 : A_AC3
    Duration                                 : 2h 6mn
    Bit rate mode                            : Constant
    Bit rate                                 : 192 Kbps
    Channel(s)                               : 2 channels
    Channel positions                        : Front: L R
    Sampling rate                            : 48.0 KHz
    Bit depth                                : 16 bits
    Compression mode                         : Lossy
    Stream size                              : 174 MiB (7%)
    Default                                  : Yes
    Forced                                   : No
    
    Text
    ID                                       : 3
    Format                                   : UTF-8
    Codec ID                                 : S_TEXT/UTF8
    Codec ID/Info                            : UTF-8 Plain Text
    Default                                  : Yes
    Forced                                   : No
    Imdb                                   : http://www.imdb.com/title/tt1877832
    [​IMG]
    [​IMG]
    [​IMG]
    [​IMG]
    [​IMG]


    [​IMG]
    [​IMG]
    [VIDEO]

    1 Link ~ 2,57GB
    Bấm Thank Để Thấy Link


    [​IMG]

    [​IMG]
    SUB
    [​IMG]

    Kho Phim Khủng HD BluRay Update Hằng Ngày

    [​IMG]
    s0962555658 thích bài này.

Chia sẻ trang này