[Hành động | Phiêu lưu | 1 link] The Amazing Spiderman 2012 HD CAM XViD-26k

Thảo luận trong 'Hành động - Chiến tranh - Viễn tưởng' bắt đầu bởi giomua1, 11 Tháng bảy 2012.

  1. giomua1

    giomua1 Member


    The Amazing Spiderman 2012 HD CAM XViD-26k
    [​IMG]


    Mã:
    General
    Complete name : The.Amazing.Spiderman.2012.HDCAM.XViD-26k.avi
    Format : AVI
    Format/Info : Audio Video Interleave
    File size : 1.62 GiB
    Duration : 1h 59mn
    Overall bit rate : 1 938 Kbps
    Writing library : VirtualDub build 32839/release
    
    
    Video
    ID : 0
    Format : MPEG-4 Visual
    Format profile : Advanced Simple@L5
    Format settings, BVOP : 2
    Format settings, QPel : No
    Format settings, GMC : No warppoints
    Format settings, Matrix : Default (H.263)
    Codec ID : XVID
    Codec ID/Hint : XviD
    Duration : 1h 59mn
    Bit rate : 1 800 Kbps
    Width : 720 pixels
    Height : 304 pixels
    Display aspect ratio : 2.35:1
    Frame rate : 25.000 fps
    Color space : YUV
    Chroma subsampling : 4:2:0
    Bit depth : 8 bits
    Scan type : Progressive
    Compression mode : Lossy
    Bits/(Pixel*Frame) : 0.329
    Stream size : 1.51 GiB (93%)
    Writing library : XviD 1.2.1 (UTC 2008-12-04)
    
    
    Audio
    ID : 1
    Format : MPEG Audio
    Format version : Version 1
    Format profile : Layer 3
    Mode : Joint stereo
    Mode extension : MS Stereo
    Codec ID : 55
    Codec ID/Hint : MP3
    Duration : 1h 59mn
    Bit rate mode : Constant
    Bit rate : 128 Kbps
    Channel(s) : 2 channels
    Sampling rate : 44.1 KHz
    Compression mode : Lossy
    Stream size : 110 MiB (7%)
    Alignment : Split accross interleaves
    Interleave, duration : 40 ms (1.00 video frame)
    Writing library : LAME3.98r

  2. luanhap

    luanhap New Member

    co sub ko ban?

Chia sẻ trang này