[Hành động| Phiêu lưu| 1 link] The Expendables 2 2012 TS READNFO XViD–INSPiRAL-Biệt Đội Đánh Thuê 2

Thảo luận trong 'Hành động - Chiến tranh - Viễn tưởng' bắt đầu bởi giomua1, 21 Tháng tám 2012.

  1. giomua1

    giomua1 Member


    The Expendables 2 2012 TS READNFO XViD–INSPiRAL-Biệt Đội Đánh Thuê 2
    [​IMG]
    [​IMG]
    Mã:
    The Expendables 2 2012 TS READNFO XViD - INSPiRAL
    
    
    IMDB:
    
    
    http://www.imdb.com/title/tt1764651/
    
    
    
    
    SOURCES:
    
    
    VIDEO - MeP THANKS
    AUDIO - Tooth Fairy THANKS
    SUBS - None Add
    
    
    STATS:
    
    
    Video
    ID : 0
    Format : MPEG-4 Visual
    Format profile : Advanced Simple@L5
    Format settings, BVOP : 2
    Format settings, QPel : No
    Format settings, GMC : No warppoints
    Format settings, Matrix : Default (MPEG)
    Muxing mode : Packed bitstream
    Codec ID : XVID
    Codec ID/Hint : XviD
    Duration : 1h 30mn
    Bit rate : 2 043 Kbps
    Width : 720 pixels
    Height : 272 pixels
    Display aspect ratio : 2.647
    Frame rate : 29.970 fps
    Color space : YUV
    Chroma subsampling : 4:2:0
    Bit depth : 8 bits
    Scan type : Progressive
    Compression mode : Lossy
    Bits/(Pixel*Frame) : 0.348
    Stream size : 1.29 GiB (94%)
    Writing library : XviD 64
    
    
    Audio
    ID : 1
    Format : MPEG Audio
    Format version : Version 1
    Format profile : Layer 3
    Mode : Joint stereo
    Mode extension : MS Stereo
    Codec ID : 55
    Codec ID/Hint : MP3
    Duration : 1h 30mn
    Bit rate mode : Constant
    Bit rate : 128 Kbps
    Channel(s) : 2 channels
    Sampling rate : 48.0 KHz
    Compression mode : Lossy
    Stream size : 82.9 MiB (6%)
    Alignment : Split accross interleaves
    Interleave, duration : 33 ms (1.00 video frame)
    Interleave, preload duration : 500 ms
    






    [​IMG] [​IMG] [​IMG] [​IMG]
    [​IMG]




    1 link 1.3GB
  2. s0966790079

    s0966790079 Guest

    giá mà có bản HD xem thì sướng nhỉ. bác có HD ko cho em cái link

Chia sẻ trang này