[Hành động | Viễn tưởng | 1 link] Battleship -Chiến Hạm (2012) TS

Thảo luận trong 'Hành động - Chiến tranh - Viễn tưởng' bắt đầu bởi giomua, 28 Tháng tư 2012.

  1. giomua

    giomua New Member


    Battleship -Chiến Hạm (2012) TS
    [​IMG]


    Mã:
    General
    Complete name                    : E:\Battleship.2012.R5.mkv
    Format                           : Matroska
    File size                        : 1.10 GiB
    Duration                         : 1h 53mn
    Overall bit rate                 : 1 383 Kbps
    Writing application              : Lavf52.0.0
    Writing library                  : Lavf52.0.0
    
    
    Video
    ID                               : 1
    Format                           : MPEG-4 Visual
    Format profile                   : Simple@L1
    Format settings, BVOP            : No
    Format settings, QPel            : No
    Format settings, GMC             : No warppoints
    Format settings, Matrix          : Default (H.263)
    Codec ID                         : V_MPEG4/ISO/ASP
    Codec ID/Info                    : Advanced Simple Profile
    Duration                         : 1h 53mn
    Bit rate                         : 1 227 Kbps
    Width                            : 720 pixels
    Height                           : 576 pixels
    Display aspect ratio             : 16:9
    Frame rate mode                  : Constant
    Frame rate                       : 25.000 fps
    Standard                         : PAL
    Color space                      : YUV
    Chroma subsampling               : 4:2:0
    Bit depth                        : 8 bits
    Scan type                        : Progressive
    Bits/(Pixel*Frame)               : 0.118
    Stream size                      : 997 MiB (89%)
    Writing library                  : Lavc51.48.0
    Language                         : English
    
    
    Audio
    ID                               : 2
    Format                           : MPEG Audio
    Format version                   : Version 1
    Format profile                   : Layer 2
    Codec ID                         : A_MPEG/L2
    Codec ID/Hint                    : MP2
    Duration                         : 1h 53mn
    Bit rate mode                    : Constant
    Bit rate                         : 128 Kbps
    Channel(s)                       : 2 channels
    Sampling rate                    : 44.1 KHz
    Bit depth                        : 16 bits
    Stream size                      : 104 MiB (9%)
    Language                         : English
    



  2. test18412

    test18412 New Member

    Cam on ban that nhieu nha
  3. tung_friends

    tung_friends Moderator

    thanks bạn , có biệt đội siêu anh hùng chưa nhỉ ^^
  4. saiporsi01

    saiporsi01 New Member

    làm đau cả tim , tưởng có HD rồi chứ Thank nha

Chia sẻ trang này