[Hoạt hình | Hài hước | 1 link] Life's a Jungle 2012 DvdRip Xvid UnKnOwN

Thảo luận trong 'Tình cảm - Tâm lý - Hài hước' bắt đầu bởi giomua1, 18 Tháng năm 2012.

  1. giomua1

    giomua1 Member


    Life's a Jungle 2012 DvdRip Xvid UnKnOwN
    [​IMG]


    Mã:
    Encoded By .......:UnKnOwN
    Runtime ..........:1:25
    IMDb URL .........: N/A
    Language .........:English
    File Size ........:900mb
    Release Date ......... 2012
    Source       ......... your Wife
    File Type    ......... Single AVI
    PS3 Compatible ....... Go For It
    Genre        ......... Kids/Comedy
    
    
    
    
    Video
    ID                               : 0
    Format                           : MPEG-4 Visual
    Format profile                   : Advanced Simple@L5
    Format settings, BVOP            : Yes
    Format settings, QPel            : No
    Format settings, GMC             : No warppoints
    Format settings, Matrix          : Custom
    Codec ID                         : XVID
    Codec ID/Hint                    : XviD
    Duration                         : 1h 25mn
    Bit rate                         : 1200kbps
    Width                            : 688pixels
    Height                           : 384pixels
    Display aspect ratio             : 16:9
    Frame rate                       : 23.997fps
    Color space                      : YUV
    Chroma subsampling               : 4:2:0
    Bit depth                        : 8 bits
    Scan type                        : Progressive
    Bits/(Pixel*Frame)               : 0.234
    Stream size                      : 892 MiB (86%)
    Writing library                  : XviD 1.2.1 (UTC 2008-12-04)
    
    
    
    
    Audio
    ID                               : 1
    Format                           : Mp3
    Format/Info                      : MPEG
    Mode extension                   : CM (complete main)
    Codec ID                         : 2000
    Duration                         : 1h 25mn
    Bit rate mode                    : Constant
    Bit rate                         : 192kbps
    Channel(s)                       : 2channels
    Channel positions                : Front: L R
    Sampling rate                    : 48.0 KHz
    Bit depth                        : 16 bits
    Stream size                      : 302 MiB
    Alignment                        : Aligned on interleaves
    Interleave, duration             : 42 ms (1.00 video frame)
    Interleave, preload duration     : 512 ms
    
    
    
    
    
    
                                  SYNOPSIS
    Pip thought he had it all, a pampered lifestyle, huge mansion and adoring
        owners, that is until the Taylor family booked an African safari.
    


    [​IMG]
    [video]www.youtube.com/watch?v=seKQHUBK_IA[/video]
    DOWNLOAD 1 LINK
  2. pororo2912

    pororo2912 New Member

Chia sẻ trang này