Jurassic World 2015 HD-TS H264 mp42 AVC AAC kayos ~ Thế giới Khủng Long

Thảo luận trong 'Hành động - Chiến tranh - Viễn tưởng' bắt đầu bởi lucky__star85, 19 Tháng sáu 2015.

  1. lucky__star85

    lucky__star85 Member

    Jurassic World 2015 HD-TS H264 mp42 AVC AAC kayos
    Thế giới Khủng Long
    (Chris Pratt, Bryce Dallas Howard, Ty Simpkins)

    Mã:
    General
    Format : MPEG-4
    Format profile : Base Media / Version 2
    Codec ID : mp42
    File size : 2.12 GiB
    Duration : 1h 55mn
    Overall bit rate mode : Variable
    Overall bit rate : 2 629 Kbps
    Codirector : codirector
    Production studio : studio
    ContentType : Unknown Type
    Encoded date : UTC 2015-06-14 03:24:38
    Tagged date : UTC 2015-06-14 03:24:38
    
    Video
    ID : 1
    Format : AVC
    Format/Info : Advanced Video Codec
    Format profile : Baseline@L3.1
    Format settings, CABAC : No
    Format settings, ReFrames : 1 frame
    Muxing mode : Container profile=Baseline@3.0
    Codec ID : avc1
    Codec ID/Info : Advanced Video Coding
    Duration : 1h 55mn
    Bit rate mode : Variable
    Bit rate : 2 496 Kbps
    Maximum bit rate : 3 750 Kbps
    Width : 896 pixels
    Height : 394 pixels
    Display aspect ratio : 2.25:1
    Frame rate mode : Constant
    Frame rate : 25.000 fps
    Color space : YUV
    Chroma subsampling : 4:2:0
    Bit depth : 8 bits
    Scan type : Progressive
    Bits/(Pixel*Frame) : 0.283
    Stream size : 2.02 GiB (95%)
    Language : English
    
    Audio
    ID : 2
    Format : AAC
    Format/Info : Advanced Audio Codec
    Format profile : LC
    Codec ID : 40
    Duration : 1h 55mn
    Bit rate mode : Constant
    Bit rate : 128 Kbps
    Channel(s) : 2 channels
    Channel positions : Front: L R
    Sampling rate : 48.0 KHz
    Compression mode : Lossy
    Stream size : 106 MiB (5%)
    Title : Stereo
    Language : English
    
    Nội dung phim
    Trailer


    Screenshots

    [​IMG]
    [​IMG]
    [​IMG]
    [​IMG]
    [​IMG]
    [​IMG]
    [​IMG]
    [​IMG]

    Link download

    Link Up.4share
    Link Fshare
    Subtitles Việt
    Last edited: 22 Tháng sáu 2015
  2. lucky__star85

    lucky__star85 Member

Chia sẻ trang này