Love Match 2014 720p HDRip H264 ~ Wrestling - Le-sseu-ling | Choi Seong-gook, Kang Eun-bi, Ha Na-kyeong [18+]

Thảo luận trong 'Phim HD' bắt đầu bởi v0minh, 12 Tháng chín 2016.

  1. v0minh

    v0minh Active Member

    Love Match 2014 720p HDRip H264

    Wrestling - Le-sseu-ling

    [​IMG]

    (Choi Seong-gook, Kang Eun-bi, Ha Na-kyeong)

    [​IMG]

    [​IMG]

    THÔNG TIN PHIM. Click HERE:
    Love Match 2014 AKA Wrestling, 레쓰링, Le-sseu-ling is a sexy comedy about a professor and his female student.

    Directed by Kim Ho-joon, 김호준
    Cast: Choi Seong-gook, Kang Eun-bi, Ha Na-kyeong, Jo Byeong-gi, Ko I-geon, Ma Mang, 마망, 최성국, 강은비, 하나경, 조병기, 고이건
    Genre: Comedy, Korea, Melody, Romance, Eortic
    85min | Release date in South Korea : 2014/09/11
    http://goo.gl/1k6YQ1
    Review: http://goo.gl/yiS0Vz

    Review phim Love Match 2014

    General
    Complete name : G:\_CAT3\_DOWNLOADFSHARE\Wrestling.2014.720p.HDrip.AVC.MP4
    Format : MPEG-4
    Format profile : Base Media / Version 2
    Codec ID : mp42
    File size : 941 MiB
    Duration : 1h 58mn
    Overall bit rate mode : Variable
    Overall bit rate : 1 107 Kbps
    Encoded date : UTC 2016-08-13 23:47:38
    Tagged date : UTC 2016-08-13 23:47:38
    gsst : 0
    gstd : 7130244

    Video
    ID : 1
    Format : AVC
    Format/Info : Advanced Video Codec
    Format profile : Main@L3.1
    Format settings, CABAC : Yes
    Format settings, ReFrames : 3 frames
    Codec ID : avc1
    Codec ID/Info : Advanced Video Coding
    Duration : 1h 58mn
    Bit rate mode : Variable
    Bit rate : 977 Kbps
    Width : 1 280 pixels
    Height : 720 pixels
    Display aspect ratio : 16:9
    Frame rate mode : Variable
    Frame rate : 29.921 fps
    Minimum frame rate : 29.910 fps
    Maximum frame rate : 29.930 fps
    Color space : YUV
    Chroma subsampling : 4:2:0
    Bit depth : 8 bits
    Scan type : Progressive
    Bits/(Pixel*Frame) : 0.035
    Stream size : 830 MiB (88%)
    Title : ISO Media file produced by Google Inc.
    Encoded date : UTC 2016-08-13 23:47:38
    Tagged date : UTC 2016-08-13 23:47:38
    Color primaries : BT.709
    Transfer characteristics : BT.709
    Matrix coefficients : BT.709

    Audio
    ID : 2
    Format : AAC
    Format/Info : Advanced Audio Codec
    Format profile : LC
    Codec ID : 40
    Duration : 1h 58mn
    Bit rate mode : Variable
    Bit rate : 126 Kbps
    Channel count : 2 channels
    Channel positions : Front: L R
    Sampling rate : 44.1 KHz
    Compression mode : Lossy
    Delay relative to video : 33ms
    Stream size : 107 MiB (11%)
    Title : ISO Media file produced by Google Inc.
    Encoded date : UTC 2016-08-13 23:47:38
    Tagged date : UTC 2016-08-13 23:47:38

    SCREENSHOTs

    [​IMG]





Chia sẻ trang này