Night Peacock 2016 ViE 720p HDTC x264-ZiN ~ Dạ Khổng Tước | Lưu Diệc Phi, Lê Minh, Dư Thiếu Quần

Thảo luận trong 'Phim SD' bắt đầu bởi v0minh, 16 Tháng sáu 2016.

  1. v0minh

    v0minh Active Member

    Night Peacock 2016 ViE 720p HDTC x264-ZiN

    Dạ Khổng Tước

    {Thuyết Minh}

    (Lưu Diệc Phi, Lê Minh, Dư Thiếu Quần)


    [​IMG]

    THÔNG TIN PHIM. Click HERE:
    Phim kể về Nữ du học sinh Pháp, Elsa, ở Thành Đô đã yêu một nhà nghiên cứu ngành tơ lụa, cũng là cao thủ thổi sáo tên Mã Vinh, sau đó cô sang Paris và vô tình lại nảy sinh tình cảm với người anh em của Mã Vinh, tên Kiến Dân, một bậc thầy về hình xăm. Người yêu trước (Mã Vinh) tìm được một loại tằm đặc biệt đúng như nguyện vọng của anh – Dạ Khổng Tước, người yêu thứ hai (Kiến Dân) mang hình ảnh Dạ Khổng Tước hóa bướm mãi mãi khắc lên người của Elsa…


    Format : Matroska
    Format version : Version 4 / Version 2
    File size : 1.30 GiB
    Duration : 1h 24mn
    Overall bit rate : 2 203 Kbps


    Video

    Width : 1 280 pixels
    Height : 524 pixels
    Display aspect ratio : 2.40:1
    Frame rate mode : Constant
    Frame rate : 29.970 fps


    Audio #1
    Channel(s) : 6 channels
    Channel positions : Front: L C R, Side: L R, LFE
    Sampling rate : 48.0 KHz
    Frame rate : 46.875 fps (1024 spf)
    Compression mode : Lossy
    Delay relative to video : -67ms
    Stream size : 77.3 MiB (6%)
    Title : ViE@ZiN-Fcine
    Language : Vietnamese
    Default : Yes
    Forced : No

    Audio #2
    ID : 3
    Format : AC-3
    Format/Info : Audio Coding 3
    Mode extension : CM (complete main)
    Format settings, Endianness : Big
    Codec ID : A_AC3
    Duration : 1h 24mn
    Bit rate mode : Constant
    Bit rate : 192 Kbps
    Channel(s) : 2 channels
    Channel positions : Front: L R
    Sampling rate : 48.0 KHz
    Frame rate : 31.250 fps (1536 spf)
    Compression mode : Lossy
    Delay relative to video : -67ms
    Stream size : 116 MiB (9%)
    Default : No
    Forced : No

    SCREENSHOTs

    [​IMG][​IMG][​IMG][​IMG][​IMG][​IMG][​IMG][​IMG][​IMG]






Chia sẻ trang này