Paris By Night : Divos 2018 NTSC 2xDVD9 ~ Ca Nhạc Thúy Nga Divos

Thảo luận trong 'Nhạc Việt Nam' bắt đầu bởi hungdaita, 21 Tháng một 2018.

  1. hungdaita

    hungdaita Well-Known Member

    Paris By Night : Divos 2018 NTSC 2xDVD9-Torviet
    {Internal}
    Ca Nhạc Thúy Nga Divos
    (Bằng Kiều, Lam Anh, Tóc Tiên, Minh Tuyết, Như Quỳnh)



    [​IMG]



    [​IMG]




    Video
    ID : 224 (0xE0)
    Format : MPEG Video
    Format version : Version 2
    Format profile : Main@Main
    Format settings, BVOP : Yes
    Format settings, Matrix : Default
    Format settings, GOP : M=3, N=15
    Duration : 15mn 57s
    Bit rate mode : Variable
    Bit rate : 8 345 Kbps
    Maximum bit rate : 8 752 Kbps
    Width : 720 pixels
    Height : 480 pixels
    Display aspect ratio : 16:9
    Frame rate : 29.970 fps
    Standard : NTSC
    Color space : YUV
    Chroma subsampling : 4:2:0
    Bit depth : 8 bits
    Scan type : Progressive
    Compression mode : Lossy
    Bits/(Pixel*Frame) : 0.806
    Stream size : 952 MiB (93%)

    Audio
    ID : 189 (0xBD)-128 (0x80)
    Format : AC-3
    Format/Info : Audio Coding 3
    Mode extension : CM (complete main)
    Muxing mode : DVD-Video
    Duration : 15mn 57s
    Bit rate mode : Constant
    Bit rate : 448 Kbps
    Channel(s) : 2 channels
    Channel positions : Front: L R
    Sampling rate : 48.0 KHz
    Bit depth : 16 bits
    Compression mode : Lossy
    Delay relative to video : -236ms
    Stream size : 51.1 MiB (5%)





    PARIS BY NIGHT DIVOS


    RELEASING ON DVD ONLY

    MC: KỲ DUYÊN - Ý LAN - MINH TUYẾT

    1. Đàn Bà - Bằng Kiều, Quang Dũng, Don Hồ, Trần Thái Hoà, Đan Nguyên, Đình Bảo, Thiên Tôn
    2. Bài Không Tên Số 1 - Vũ Khanh
    3. Duyên Kiếp - Vũ Khanh & Ý Lan
    4. Cơn Đau Cuối Cùng - Lương Tùng Quang
    5. Tuý Ca - Mai Quốc Huy
    6. Xot Xa - Chế Linh & Mai Quốc Huy
    7. Đưa Em Vào Hạ - Chế Linh
    8. Riêng Một Góc Trời - Thiên Tôn
    9. Dấu Tình Sầu - Trần Thái Hoà
    10. Tình Khúc Cho Em - Trần Thái Hoà & Đình Bảo
    11. Triệu Đoá Hoa Hồng - Đình Bảo
    12. Hình Ảnh Người Em Không Đợi - Don Hồ
    13. Ngày Em Đi - Đan Nguyên
    14. Tình Chết Theo Mùa Đông - Don Hồ & Đan Nguyên
    15. Hài Kịch “Duyên Phận” Chí Tài, Hoài Tâm, Thiên Tôn
    16. LK Giết Người Trong Mộng, Mười Năm Tình Cũ, Vết Thù Trên Lưng Ngựa Hoang - Dương Triệu Vũ
    17. Tình Khúc Thứ Nhất - Bằng Kiều
    18. Từ Ngày Em Đi - Bằng Kiều & Minh Tuyết
    19. Tình Tự Mùa Xuân - Quang Dũng
    20. Bài Không Tên Cuối Cùng - Quang Dũng
    21. Nghìn Trùng Xa Cách - Bằng Kiều, Thiên Tôn, Đình Bảo



    s0934562472 and s0982378887 like this.
  2. s0934562472

    s0934562472 New Member

    Thanks chủ thớt rất nhiều nhé. Mình sẽ xem thật vui :)

Chia sẻ trang này