[Phiêu Lưu] The Lion King 2019 ViE 1080p Blu-ray Remux AVC TrueHD Atmos 7.1-HDT ~ Vua Sư Tử {Sub Việt | Thuyết Minh}

Thảo luận trong 'Phim Hoạt Hình' bắt đầu bởi hungdaita, 14 Tháng mười 2019.

  1. hungdaita

    hungdaita Well-Known Member

    The Lion King 2019 ViE 1080p Blu-ray Remux AVC TrueHD Atmos 7.1-HDT
    {Sub Việt | Thuyết Minh}
    Vua Sư Tử
    Donald Glover, Beyoncé, Seth Rogen


    [​IMG]



    [​IMG]

    [​IMG]


    Format : Matroska
    Format version : Version 4
    File size : 32.3 GiB
    Duration : 2 h 0 min
    Overall bit rate mode : Variable
    Overall bit rate : 38.5 Mb/s
    Movie name : The Lion King 2019 ViE 1080p Blu-ray Remux AVC TrueHD Atmos 7.1-HDT
    Encoded date : UTC 2019-10-13 12:32:27
    Writing application : mkvmerge v38.0.0 ('The Silent Type') 64-bit
    Writing library : libebml v1.3.9 + libmatroska v1.5.2

    Video
    ID : 1
    Format : AVC
    Format/Info : Advanced Video Codec
    Format profile : High@L4.1
    Format settings : CABAC / 4 Ref Frames
    Format settings, CABAC : Yes
    Format settings, Reference frames : 4 frames
    Codec ID : V_MPEG4/ISO/AVC
    Duration : 1 h 58 min
    Bit rate mode : Variable
    Bit rate : 27.6 Mb/s
    Maximum bit rate : 35.0 Mb/s
    Width : 1 920 pixels
    Height : 1 080 pixels
    Display aspect ratio : 16:9
    Frame rate mode : Constant
    Frame rate : 23.976 (24000/1001) FPS
    Color space : YUV
    Chroma subsampling : 4:2:0
    Bit depth : 8 bits
    Scan type : Progressive
    Bits/(Pixel*Frame) : 0.554
    Stream size : 22.8 GiB (71%)
    Title : The Lion King 2019 ViE 1080p Blu-ray Remux AVC TrueHD Atmos 7.1-HDT
    Language : English
    Default : Yes
    Forced : No

    Audio #1
    ID : 2
    Format : DTS ES XLL
    Format/Info : Digital Theater Systems
    Commercial name : DTS-HD Master Audio
    Codec ID : A_DTS
    Duration : 1 h 58 min
    Bit rate mode : Variable
    Bit rate : 5 090 kb/s
    Channel(s) : 8 channels
    Channel layout : C L R Ls Rs LFE Lb Rb
    Sampling rate : 48.0 kHz
    Frame rate : 93.750 FPS (512 SPF)
    Bit depth : 24 bits
    Compression mode : Lossless
    Stream size : 4.20 GiB (13%)
    Language : Vietnamese
    Default : Yes
    Forced : Yes

    Audio #2
    ID : 3
    Format : AC-3
    Format/Info : Audio Coding 3
    Commercial name : Dolby Digital
    Codec ID : A_AC3
    Duration : 1 h 58 min
    Bit rate mode : Constant
    Bit rate : 640 kb/s
    Channel(s) : 6 channels
    Channel layout : L R C LFE Ls Rs
    Sampling rate : 48.0 kHz
    Frame rate : 31.250 FPS (1536 SPF)
    Compression mode : Lossy
    Stream size : 541 MiB (2%)
    Language : Vietnamese
    Service kind : Complete Main
    Default : No
    Forced : No

    Audio #3
    ID : 4
    Format : MLP FBA 16-ch
    Format/Info : Meridian Lossless Packing FBA with 16-channel presentation
    Commercial name : Dolby TrueHD with Dolby Atmos
    Codec ID : A_TRUEHD
    Duration : 1 h 58 min
    Bit rate mode : Variable
    Bit rate : 4 929 kb/s
    Maximum bit rate : 7 332 kb/s
    Channel(s) : 8 channels
    Channel layout : L R C LFE Ls Rs Lb Rb
    Sampling rate : 48.0 kHz
    Frame rate : 1 200.000 FPS (40 SPF)
    Compression mode : Lossless
    Stream size : 4.07 GiB (13%)
    Title : TrueHD 7.1 Atmos
    Language : English
    Default : No
    Forced : No
    Number of dynamic objects : 13
    Bed channel count : 1 channel
    Bed channel configuration : LFE

    Audio #4
    ID : 5
    Format : AC-3
    Format/Info : Audio Coding 3
    Commercial name : Dolby Digital
    Codec ID : A_AC3
    Duration : 1 h 58 min
    Bit rate mode : Constant
    Bit rate : 640 kb/s
    Channel(s) : 6 channels
    Channel layout : L R C LFE Ls Rs
    Sampling rate : 48.0 kHz
    Frame rate : 31.250 FPS (1536 SPF)
    Compression mode : Lossy
    Stream size : 541 MiB (2%)
    Title : AC-3 5.1
    Language : English
    Service kind : Complete Main
    Default : No
    Forced : No

    Text #1
    ID : 6
    Format : UTF-8
    Codec ID : S_TEXT/UTF8
    Codec ID/Info : UTF-8 Plain Text
    Duration : 1 h 59 min
    Bit rate : 65 b/s
    Count of elements : 1310
    Stream size : 57.1 KiB (0%)
    Language : Vietnamese
    Default : No
    Forced : No

    Text #2
    ID : 7
    Format : PGS
    Muxing mode : zlib
    Codec ID : S_HDMV/PGS
    Codec ID/Info : Picture based subtitle format used on BDs/HD-DVDs
    Duration : 1 h 52 min
    Bit rate : 37.5 kb/s
    Count of elements : 3420
    Stream size : 30.0 MiB (0%)
    Title : English (SDH)
    Language : English
    Default : No
    Forced : No

    Text #3
    ID : 8
    Format : PGS
    Muxing mode : zlib
    Codec ID : S_HDMV/PGS
    Codec ID/Info : Picture based subtitle format used on BDs/HD-DVDs
    Duration : 1 h 56 min
    Bit rate : 31.4 kb/s
    Count of elements : 2788
    Stream size : 26.2 MiB (0%)
    Title : French
    Language : French
    Default : No
    Forced : No

    Text #4
    ID : 9
    Format : PGS
    Muxing mode : zlib
    Codec ID : S_HDMV/PGS
    Codec ID/Info : Picture based subtitle format used on BDs/HD-DVDs
    Duration : 1 h 55 min
    Bit rate : 25.9 kb/s
    Count of elements : 2556
    Stream size : 21.5 MiB (0%)
    Title : French
    Language : French
    Default : No
    Forced : No

    Text #5
    ID : 10
    Format : PGS
    Muxing mode : zlib
    Codec ID : S_HDMV/PGS
    Codec ID/Info : Picture based subtitle format used on BDs/HD-DVDs
    Duration : 1 h 46 min
    Bit rate : 32.7 kb/s
    Count of elements : 2742
    Stream size : 24.8 MiB (0%)
    Title : Spanish
    Language : Spanish
    Default : No
    Forced : No

    Text #6
    ID : 11
    Format : PGS
    Muxing mode : zlib
    Codec ID : S_HDMV/PGS
    Codec ID/Info : Picture based subtitle format used on BDs/HD-DVDs
    Duration : 1 h 55 min
    Bit rate : 28.9 kb/s
    Count of elements : 2850
    Stream size : 24.0 MiB (0%)
    Title : German
    Language : German
    Default : No
    Forced : No

    Text #7
    ID : 12
    Format : PGS
    Muxing mode : zlib
    Codec ID : S_HDMV/PGS
    Codec ID/Info : Picture based subtitle format used on BDs/HD-DVDs
    Duration : 1 h 55 min
    Bit rate : 28.1 kb/s
    Count of elements : 2716
    Stream size : 23.3 MiB (0%)
    Title : Italian
    Language : Italian
    Default : No
    Forced : No

    Text #8
    ID : 13
    Format : PGS
    Muxing mode : zlib
    Codec ID : S_HDMV/PGS
    Codec ID/Info : Picture based subtitle format used on BDs/HD-DVDs
    Duration : 1 h 55 min
    Bit rate : 25.9 kb/s
    Count of elements : 2716
    Stream size : 21.4 MiB (0%)
    Title : Norwegian
    Language : Norwegian
    Default : No
    Forced : No

    Text #9
    ID : 14
    Format : PGS
    Muxing mode : zlib
    Codec ID : S_HDMV/PGS
    Codec ID/Info : Picture based subtitle format used on BDs/HD-DVDs
    Duration : 1 h 55 min
    Bit rate : 24.1 kb/s
    Count of elements : 1890
    Stream size : 20.0 MiB (0%)
    Title : Swedish
    Language : Swedish
    Default : No
    Forced : No

    Text #10
    ID : 15
    Format : PGS
    Muxing mode : zlib
    Codec ID : S_HDMV/PGS
    Codec ID/Info : Picture based subtitle format used on BDs/HD-DVDs
    Duration : 1 h 53 min
    Bit rate : 70.1 kb/s
    Count of elements : 4030
    Stream size : 56.8 MiB (0%)
    Title : Commentary with Director Jon Favreau
    Language : English
    Default : No
    Forced : No

    Text #11
    ID : 16
    Format : PGS
    Muxing mode : zlib
    Codec ID : S_HDMV/PGS
    Codec ID/Info : Picture based subtitle format used on BDs/HD-DVDs
    Duration : 1 h 53 min
    Bit rate : 58.8 kb/s
    Count of elements : 3980
    Stream size : 47.7 MiB (0%)
    Title : Commentary with Director Jon Favreau
    Language : French
    Default : No
    Forced : No

    Text #12
    ID : 17
    Format : PGS
    Muxing mode : zlib
    Codec ID : S_HDMV/PGS
    Codec ID/Info : Picture based subtitle format used on BDs/HD-DVDs
    Duration : 1 h 53 min
    Bit rate : 60.5 kb/s
    Count of elements : 3978
    Stream size : 49.0 MiB (0%)
    Title : Commentary with Director Jon Favreau
    Language : Spanish
    Default : No
    Forced : No

    Menu
    00:00:00.000 : :Chapter 01
    00:04:50.498 : :Chapter 02
    00:10:51.067 : :Chapter 03
    00:17:47.691 : :Chapter 04
    00:23:53.014 : :Chapter 05
    00:30:00.131 : :Chapter 06
    00:33:05.066 : :Chapter 07
    00:37:09.310 : :Chapter 08
    00:43:42.911 : :Chapter 09
    00:50:47.335 : :Chapter 10
    00:55:02.716 : :Chapter 11
    00:59:48.459 : :Chapter 12
    01:06:27.233 : :Chapter 13
    01:14:32.092 : :Chapter 14
    01:18:26.410 : :Chapter 15
    01:23:07.899 : :Chapter 16
    01:28:04.654 : :Chapter 17
    01:33:10.876 : :Chapter 18
    01:37:13.744 : :Chapter 19
    01:44:39.189 : :Chapter 20
    01:47:47.335 : :Chapter 21

    Vua Sư Tử (The Lion King Live-action) là một bộ phim điện ảnh chính kịch Mỹ, phim cho tuổi mới lớn sắp tới của đạo diễn Jon Favreau và được sản xuất bởi Walt Disney Pictures dựa trên bộ phim hoạt hình cùng tên năm 1994. Vua Sư Tử Live Action này là một bộ phim mới phiên bản tái phát hành người đóng 3D, hay gọi cách khác là bản làm lại của Vua Sử Tử.


    [​IMG]

    Phải chuột vào ảnh, mở với thẻ mới để xem ảnh lớn.

    [​IMG] [​IMG] [​IMG] [​IMG] [​IMG] [​IMG]

    Full Screenshots:

    ☆☆☆ Gallery => Click Vào Link Để Xem Ảnh Lớn ☆☆☆

    [​IMG]



    ☆☆☆ Click Vào Link Để Xem Trailer ☆☆☆

    [​IMG]

    One Link :

    [​IMG]

    [HIDE]
    The Lion King 2019 ViE 1080p Blu-ray Remux AVC TrueHD Atmoos 7.1-HDT {Sub Việt | Thuyết Minh} = 32.27 GB

    The Lion King 2019 1080p Blu-ray AVC DTS-HD MA 7.1-MTeam.iso {Internal} = 42.29 GB


    Xem các bản khác:
    Link Fshare Phim Hot ~ hungdaita

    [/HIDE]

    [​IMG]

    [HIDE]
    The Lion King 2019 ViE 1080p Blu-ray Remux AVC TrueHD Atmoos 7.1-HDT {Sub Việt | Thuyết Minh} = 32.27 GB

    The Lion King 2019 1080p Blu-ray AVC DTS-HD MA 7.1-MTeam.iso {Internal} = 42.29 GB

    Xem các bản khác:
    Link 4Share Phim Hot ~ hungdaita

    [/HIDE]


    [​IMG]

    Phụ Đề Việt: {Đã Có}

    https://www.fshare.vn/file/W28OGZBDJF6C
    Subscene - Subtitles for this Movie


    [​IMG]
    Last edited: 14 Tháng mười 2019

Chia sẻ trang này