[Phiêu Lưu] The Lion King 2019 ViE 720p BluRay DTS x264-MTeam ~ Vua Sư Tử {Sub Việt | Thuyết Minh}

Thảo luận trong 'Phim Hoạt Hình' bắt đầu bởi hungdaita, 14 Tháng mười 2019.

  1. hungdaita

    hungdaita Well-Known Member

    The Lion King 2019 ViE 720p BluRay DTS x264-MTeam
    {Sub Việt | Thuyết Minh}
    Vua Sư Tử
    Donald Glover, Beyoncé, Seth Rogen


    [​IMG]



    [​IMG]

    [​IMG]






    Format : Matroska
    Format version : Version 4
    File size : 7.97 GiB
    Duration : 2 h 0 min
    Overall bit rate : 9 513 kb/s
    Encoded date : UTC 2019-10-13 12:16:24
    Writing application : mkvmerge v38.0.0 ('The Silent Type') 64-bit
    Writing library : libebml v1.3.9 + libmatroska v1.5.2

    Video
    ID : 1
    Format : AVC
    Format/Info : Advanced Video Codec
    Format profile : High@L4.1
    Format settings : CABAC / 9 Ref Frames
    Format settings, CABAC : Yes
    Format settings, Reference frames : 9 frames
    Codec ID : V_MPEG4/ISO/AVC
    Duration : 1 h 58 min
    Bit rate : 5 980 kb/s
    Width : 1 280 pixels
    Height : 720 pixels
    Display aspect ratio : 16:9
    Frame rate mode : Constant
    Frame rate : 23.976 (24000/1001) FPS
    Color space : YUV
    Chroma subsampling : 4:2:0
    Bit depth : 8 bits
    Scan type : Progressive
    Bits/(Pixel*Frame) : 0.271
    Stream size : 4.94 GiB (62%)
    Writing library : x264 core 157 r2938 2b00a84 TnP@MTeam Mod
    Encoding settings : cabac=1 / ref=9 / deblock=1:-3:-3 / analyse=0x3:0x133 / me=umh / subme=10 / psy=1 / psy_rd=1.05:0.00 / mixed_ref=1 / me_range=32 / chroma_me=1 / trellis=2 / 8x8dct=1 / cqm=0 / deadzone=21,11 / fast_pskip=0 / chroma_qp_offset=-2 / threads=12 / lookahead_threads=2 / sliced_threads=0 / nr=0 / decimate=0 / interlaced=0 / bluray_compat=0 / constrained_intra=0 / bframes=8 / b_pyramid=2 / b_adapt=2 / b_bias=0 / direct=3 / weightb=1 / open_gop=0 / weightp=2 / keyint=250 / keyint_min=24 / scenecut=40 / intra_refresh=0 / rc_lookahead=250 / rc=crf / mbtree=0 / crf=16.1 / qcomp=0.60 / qpmin=0 / qpmax=69 / qpstep=4 / vbv_maxrate=62500 / vbv_bufsize=78125 / crf_max=0.0 / nal_hrd=none / filler=0 / ip_ratio=1.30 / pb_ratio=1.20 / aq=3:0.80
    Language : English
    Default : Yes
    Forced : No
    Color range : Limited
    Color primaries : BT.709
    Matrix coefficients : BT.709

    Audio #1
    ID : 2
    Format : DTS ES
    Format/Info : Digital Theater Systems
    Commercial name : DTS-ES Matrix
    Codec ID : A_DTS
    Duration : 1 h 58 min
    Bit rate mode : Constant
    Bit rate : 1 509 kb/s
    Channel(s) : 6 channels
    Channel(s)_Original : 7 channels
    ChannelLayout_Original : C L R Ls Rs Cs LFE
    Sampling rate : 48.0 kHz
    Frame rate : 93.750 FPS (512 SPF)
    Bit depth : 24 bits
    Compression mode : Lossy
    Stream size : 1.25 GiB (16%)
    Language : Vietnamese
    Default : Yes
    Forced : Yes

    Audio #2
    ID : 3
    Format : AC-3
    Format/Info : Audio Coding 3
    Commercial name : Dolby Digital
    Codec ID : A_AC3
    Duration : 1 h 58 min
    Bit rate mode : Constant
    Bit rate : 640 kb/s
    Channel(s) : 6 channels
    Channel layout : L R C LFE Ls Rs
    Sampling rate : 48.0 kHz
    Frame rate : 31.250 FPS (1536 SPF)
    Compression mode : Lossy
    Stream size : 541 MiB (7%)
    Language : Vietnamese
    Service kind : Complete Main
    Default : No
    Forced : No

    Audio #3
    ID : 4
    Format : DTS
    Format/Info : Digital Theater Systems
    Codec ID : A_DTS
    Duration : 1 h 58 min
    Bit rate mode : Constant
    Bit rate : 1 509 kb/s
    Channel(s) : 6 channels
    Channel layout : C L R Ls Rs LFE
    Sampling rate : 48.0 kHz
    Frame rate : 93.750 FPS (512 SPF)
    Bit depth : 24 bits
    Compression mode : Lossy
    Stream size : 1.25 GiB (16%)
    Language : English
    Default : No
    Forced : No

    Text #1
    ID : 5
    Format : UTF-8
    Codec ID : S_TEXT/UTF8
    Codec ID/Info : UTF-8 Plain Text
    Duration : 1 h 59 min
    Bit rate : 65 b/s
    Count of elements : 1310
    Stream size : 57.1 KiB (0%)
    Language : Vietnamese
    Default : No
    Forced : No

    Text #2
    ID : 6
    Format : PGS
    Muxing mode : zlib
    Codec ID : S_HDMV/PGS
    Codec ID/Info : Picture based subtitle format used on BDs/HD-DVDs
    Duration : 1 h 52 min
    Bit rate : 37.5 kb/s
    Count of elements : 3420
    Stream size : 30.0 MiB (0%)
    Language : English
    Default : No
    Forced : No

    Menu
    00:00:00.000 : en:Chapter 01
    00:04:50.499 : en:Chapter 02
    00:10:51.067 : en:Chapter 03
    00:17:47.692 : en:Chapter 04
    00:23:53.015 : en:Chapter 05
    00:30:00.132 : en:Chapter 06
    00:33:05.066 : en:Chapter 07
    00:37:09.310 : en:Chapter 08
    00:43:42.912 : en:Chapter 09
    00:50:47.336 : en:Chapter 10
    00:55:02.716 : en:Chapter 11
    00:59:48.460 : en:Chapter 12
    01:06:27.233 : en:Chapter 13
    01:14:32.093 : en:Chapter 14
    01:18:26.410 : en:Chapter 15
    01:23:07.900 : en:Chapter 16
    01:28:04.654 : en:Chapter 17
    01:33:10.877 : en:Chapter 18
    01:37:13.745 : en:Chapter 19
    01:44:39.190 : en:Chapter 20
    01:47:47.336 : en:Chapter 21








    Vua Sư Tử (The Lion King Live-action) là một bộ phim điện ảnh chính kịch Mỹ, phim cho tuổi mới lớn sắp tới của đạo diễn Jon Favreau và được sản xuất bởi Walt Disney Pictures dựa trên bộ phim hoạt hình cùng tên năm 1994. Vua Sư Tử Live Action này là một bộ phim mới phiên bản tái phát hành người đóng 3D, hay gọi cách khác là bản làm lại của Vua Sử Tử.



Chia sẻ trang này