[Phiêu Lưu] The Way Back 2020 1080p Blu-ray Remux AVC TrueHD Atmos 7.1-HDT ~ Đường Trở Về (Ben Affleck)

Thảo luận trong 'Phim HD' bắt đầu bởi hungdaita, 1 Tháng sáu 2020.

  1. hungdaita

    hungdaita Well-Known Member

    The Way Back 2020 1080p Blu-ray Remux AVC TrueHD Atmos 7.1-HDT
    {Internal}
    Đường Trở Về
    Ben Affleck, Al Madrigal, Janina Gavankar


    [​IMG]



    [​IMG]

    [​IMG]







    Format : Matroska
    Format version : Version 4
    File size : 28.1 GiB
    Duration : 1 h 48 min
    Overall bit rate mode : Variable
    Overall bit rate : 37.0 Mb/s
    Encoded date : UTC 2020-05-12 04:36:25
    Writing application : mkvmerge v45.0.0 ('Heaven in Pennies') 64-bit
    Writing library : libebml v1.3.10 + libmatroska v1.5.2

    Video
    ID : 1
    Format : AVC
    Format/Info : Advanced Video Codec
    Format profile : High@L4.1
    Format settings : CABAC / 4 Ref Frames
    Format settings, CABAC : Yes
    Format settings, Reference frames : 4 frames
    Codec ID : V_MPEG4/ISO/AVC
    Duration : 1 h 48 min
    Bit rate mode : Variable
    Bit rate : 33.3 Mb/s
    Maximum bit rate : 37.0 Mb/s
    Width : 1 920 pixels
    Height : 1 080 pixels
    Display aspect ratio : 16:9
    Frame rate mode : Constant
    Frame rate : 23.976 (24000/1001) FPS
    Color space : YUV
    Chroma subsampling : 4:2:0
    Bit depth : 8 bits
    Scan type : Progressive
    Bits/(Pixel*Frame) : 0.670
    Stream size : 25.2 GiB (90%)
    Title : MPEG-4 AVC Video / 33720 kbps / 1080p / 23.976 fps / 16:9 / High Profile 4.1
    Language : English
    Default : Yes
    Forced : No

    Audio
    ID : 2
    Format : MLP FBA 16-ch
    Format/Info : Meridian Lossless Packing FBA with 16-channel presentation
    Commercial name : Dolby TrueHD with Dolby Atmos
    Codec ID : A_TRUEHD
    Duration : 1 h 48 min
    Bit rate mode : Variable
    Bit rate : 3 422 kb/s
    Maximum bit rate : 5 022 kb/s
    Channel(s) : 8 channels
    Channel layout : L R C LFE Ls Rs Lb Rb
    Sampling rate : 48.0 kHz
    Frame rate : 1 200.000 FPS (40 SPF)
    Compression mode : Lossless
    Stream size : 2.59 GiB (9%)
    Title : Dolby TrueHD/Atmos Audio / 7.1 / 48 kHz / 3422 kbps / 16-bit
    Language : English
    Default : Yes
    Forced : No
    Number of dynamic objects : 15
    Bed channel count : 1 channel
    Bed channel configuration : LFE

    Text #1
    ID : 3
    Format : PGS
    Codec ID : S_HDMV/PGS
    Codec ID/Info : Picture based subtitle format used on BDs/HD-DVDs
    Duration : 1 h 40 min
    Bit rate : 48.5 kb/s
    Count of elements : 3422
    Stream size : 34.8 MiB (0%)
    Title : SDH
    Language : English
    Default : No
    Forced : No

    Text #2
    ID : 4
    Format : PGS
    Codec ID : S_HDMV/PGS
    Codec ID/Info : Picture based subtitle format used on BDs/HD-DVDs
    Duration : 1 h 45 min
    Bit rate : 35.4 kb/s
    Count of elements : 3052
    Stream size : 26.6 MiB (0%)
    Language : Danish
    Default : No
    Forced : No

    Text #3
    ID : 5
    Format : PGS
    Codec ID : S_HDMV/PGS
    Codec ID/Info : Picture based subtitle format used on BDs/HD-DVDs
    Duration : 1 h 45 min
    Bit rate : 35.5 kb/s
    Count of elements : 3040
    Stream size : 26.7 MiB (0%)
    Language : Finnish
    Default : No
    Forced : No

    Text #4
    ID : 6
    Format : PGS
    Codec ID : S_HDMV/PGS
    Codec ID/Info : Picture based subtitle format used on BDs/HD-DVDs
    Duration : 1 h 45 min
    Bit rate : 34.9 kb/s
    Count of elements : 3006
    Stream size : 26.3 MiB (0%)
    Language : Greek
    Default : No
    Forced : No

    Text #5
    ID : 7
    Format : PGS
    Codec ID : S_HDMV/PGS
    Codec ID/Info : Picture based subtitle format used on BDs/HD-DVDs
    Duration : 1 h 46 min
    Bit rate : 37.2 kb/s
    Count of elements : 3412
    Stream size : 28.3 MiB (0%)
    Title : SDH
    Language : Italian
    Default : No
    Forced : No

    Text #6
    ID : 8
    Format : PGS
    Codec ID : S_HDMV/PGS
    Codec ID/Info : Picture based subtitle format used on BDs/HD-DVDs
    Duration : 1 h 45 min
    Bit rate : 34.2 kb/s
    Count of elements : 3050
    Stream size : 25.7 MiB (0%)
    Language : Norwegian
    Default : No
    Forced : No

    Text #7
    ID : 9
    Format : PGS
    Codec ID : S_HDMV/PGS
    Codec ID/Info : Picture based subtitle format used on BDs/HD-DVDs
    Duration : 1 h 45 min
    Bit rate : 35.9 kb/s
    Count of elements : 3024
    Stream size : 27.0 MiB (0%)
    Language : Swedish
    Default : No
    Forced : No

    Menu
    00:00:00.000 : en:Chapter 1
    00:09:40.371 : en:Chapter 2
    00:15:53.786 : en:Chapter 3
    00:24:44.816 : en:Chapter 4
    00:31:35.101 : en:Chapter 5
    00:37:54.897 : en:Chapter 6
    00:45:01.073 : en:Chapter 7
    00:54:15.418 : en:Chapter 8
    01:04:14.851 : en:Chapter 9
    01:09:06.142 : en:Chapter 10
    01:17:57.464 : en:Chapter 11
    01:27:57.188 : en:Chapter 12
    01:33:17.508 : en:Chapter 13
    01:42:39.403 : en:Chapter 14








    Trong phim The Way Back, Ben Affleck đóng vai một cựu cầu thủ bóng rổ, người đã rơi vào thời kỳ khó khăn và nghiện rượu nhưng có cơ hội chuộc lỗi khi anh được yêu cầu làm huấn luyện viên tại trường trung học cũ của mình.
    Đạo diễn Gavin O'Connor nói rằng ông đã để cho Ben Affleck “lăn lộn” với những cảm xúc của mình trong quá trình quay phim

    Back in high school, Jack Cunningham had everything going for him. A basketball phenom, he could have punched his ticket to college or even the pros, but, instead, he chose to walk away from the game, forfeiting his future. Jack's glory days are long gone...but, as it turns out, not forgotten. Years later, he gets the chance to take back his life when he is asked to coach the struggling basketball team at his alma mater. Jack reluctantly accepts, surprising no one more than himself, and as the boys start to come together as a team and win, he may get his last shot at redemption ...




    [​IMG]



    Phải chuột vào ảnh, mở với thẻ mới để xem ảnh lớn.

    [​IMG] [​IMG] [​IMG] [​IMG] [​IMG] [​IMG]

    Full Screenshots:

    ☆☆☆ Gallery => Click Vào Link Để Xem Ảnh Lớn ☆☆☆

    [​IMG]



    ☆☆☆ Click Vào Link Để Xem Trailer ☆☆☆

    [​IMG]

    One Link :

    [​IMG]

    [​IMG] Donate => Build PC mới để Encode & Upload phục vụ các bạn ! [​IMG]
    Các bạn Donate click link này: https://unghotoi.com/hungdaita
    Xin chân thành cảm ơn !



    [HIDE]
    The Way Back 2020 1080p Blu-ray Remux AVC TrueHD Atmos 7.1-HDT {Internal} = 28.54 GB


    The Way Back 2020 1080p BluRay TrueHD Atmos 7.1 x264-iFT {Internal} = 18.68 GB

    The Way Back 2020 1080p BluRay DD+7.1 x264-iFT {Internal} = 16.73 GB

    The Way Back 2020 1080p BluRay TrueHD Atmos 7.1 x264-CHD {Internal} = 15.75 GB

    The Way Back 2020 1080p BluRay TrueHD Atmos 7.1 10bit x265-CHD {Internal} = 6.46 GB

    Xem các bản khác:
    Link Fshare Phim Hot ~ hungdaita

    [/HIDE]

    [​IMG]

    [​IMG] Donate => Build PC mới để Encode & Upload phục vụ các bạn ! [​IMG]
    Các bạn Donate click link này: https://unghotoi.com/hungdaita
    Xin chân thành cảm ơn !


    [HIDE]
    The Way Back 2020 1080p Blu-ray Remux AVC TrueHD Atmos 7.1-HDT {Internal} = 28.54 GB

    Xem các bản khác:
    Link 4Share Phim Hot ~ hungdaita

    [/HIDE]


    [​IMG]

    Phụ Đề

    Subscene - Subtitles for this Movie

    [​IMG]

    Bản 720p :
    The Way Back 2020 720p BluRay DD-EX 5.1 x264-iFT {Internal} = 9.11 GB

    Bản 1080p :
    The Way Back 2020 1080p BluRay TrueHD Atmos 7.1 x264-iFT {Internal} = 18.68 GB

    The Way Back 2020 1080p BluRay DD+7.1 x264-iFT {Internal} = 16.73 GB

    The Way Back 2020 1080p BluRay TrueHD Atmos 7.1 x264-CHD {Internal} = 15.75 GB

    The Way Back 2020 1080p BluRay TrueHD Atmos 7.1 10bit x265-CHD {Internal} = 6.46 GB

    Bản 1080p Blu-ray REMUX FULL CHAPTER:
    The Way Back 2020 1080p Blu-ray Remux AVC TrueHD Atmos 7.1-HDT {Internal} = 28.54 GB

Chia sẻ trang này