SNSD Girls Generation Japan 3rd Tour Limited Edition 2014 1080i AVC DTS-HD MA5.1-echain

Thảo luận trong 'Phim 1080p' bắt đầu bởi kulee, 31 Tháng mười hai 2014.

  1. kulee

    kulee Moderator

    Girls Generation Japan 3rd Tour Limited Edition 2014 1080i AVC DTS-HD MA5.1-echain
    SNSD



    [​IMG]
    [​IMG]


    Mã:
    Disc Title:     Girls' Generation Japan 3rd Tour Limited Edition 2014 1080i AVC DTS-HD MA5.1-echain
    Disc Size:      40,729,001,160 bytes
    Protection:     AACS
    BD-Java:        No
    BDInfo:         0.5.8
    
    PLAYLIST REPORT:
    
    Name:                   00010.MPLS
    Length:                 2:49:57.187 (h:m:s.ms)
    Size:                   40,634,978,304 bytes
    Total Bitrate:          31.88 Mbps
    
    VIDEO:
    
    Codec                   Bitrate             Description    
    -----                   -------             -----------    
    MPEG-4 AVC Video        23376 kbps          1080i / 29.970 fps / 16:9 / High Profile 4.1
    
    AUDIO:
    
    Codec                           Language        Bitrate         Description    
    -----                           --------        -------         -----------    
    LPCM Audio                      Miscellaneous languages2304 kbps       2.0 / 48 kHz / 2304 kbps / 24-bit
    DTS-HD Master Audio             Miscellaneous languages4541 kbps       5.1 / 48 kHz / 4541 kbps / 24-bit (DTS Core: 5.1 / 48 kHz / 1509 kbps / 24-bit)
    
    FILES:
    
    Name            Time In         Length          Size            Total Bitrate  
    ----            -------         ------          ----            -------------  
    00101.M2TS      0:00:00.000     1:23:00.709     20,147,195,904  32,360          
    00102.M2TS      1:23:00.709     1:03:41.083     15,578,155,008  32,615          
    00103.M2TS      2:26:41.793     0:13:18.797     2,747,836,416   27,520          
    00104.M2TS      2:40:00.591     0:09:56.595     2,161,790,976   28,988


    [​IMG]
    [​IMG]
    [​IMG]


    DOWNLOAD
  2. s01645437243

    s01645437243 New Member

    Cảm ơn bạn đã post! Xin vui lòng cho pass. Thanks!
  3. s01645437243

    s01645437243 New Member

    Có pass unrar chưa vậy bạn? Pass Nếu Có : Kulee hoạc Kulee-STH không sử dụng được. File này đến 31 GB lận, nếu không có pass thì thật tiếc cho những ai đã download như mình.
  4. kulee

    kulee Moderator

    Bac sử dụng Pass này nhé hdmovie.vn

Chia sẻ trang này