Summer of Director Oh 2016 720p HDRip-obame ~ Soo-sang-han Eon-ni-deul | Ko Won, Lee Chae-dam, Eom Ji-hye [18+]

Thảo luận trong 'Phim HD' bắt đầu bởi v0minh, 12 Tháng chín 2016.

  1. v0minh

    v0minh Active Member

    Summer of Director Oh 2016 720p HDRip-obame

    Soo-sang-han Eon-ni-deul

    [​IMG]

    (Ko Won, Lee Chae-dam, Eom Ji-hye)

    [​IMG]

    [​IMG]

    THÔNG TIN PHIM. Click HERE:
    Summer of Director Oh 2016 ~ 수상한 언니들, Soo-sang-han Eon-ni-deul is an erotic movie of Korea about a small film maker band, almost are female, try hard to produce a erotic content, while the only man of the band leave the group at the dificult moment.
    Review phim Summer of Director Oh 2016

    General
    Complete name : G:\수상한 언니들.2016.720p.HDRip.obame.mkv
    Format : Matroska
    Format version : Version 4 / Version 2
    File size : 2.92 GiB
    Duration : 1h 37mn
    Overall bit rate : 4 274 Kbps
    Movie name : Suspicious.Sisters.2015.720p.HDRip.YUIx87
    Encoded date : UTC 2016-08-21 16:34:11
    Writing application : mkvmerge v9.2.0 ('Photograph') 64bit
    Writing library : libebml v1.3.3 + libmatroska v1.4.4
    DURATION : 01:37:41.277000000
    NUMBER_OF_FRAMES : 224377
    NUMBER_OF_BYTES : 70335321
    _STATISTICS_WRITING_APP : mkvmerge v9.2.0 ('Photograph') 64bit
    _STATISTICS_WRITING_DATE_UTC : 2016-08-21 16:34:11
    _STATISTICS_TAGS : BPS DURATION NUMBER_OF_FRAMES NUMBER_OF_BYTES

    Video
    ID : 2
    Format : AVC
    Format/Info : Advanced Video Codec
    Format profile : Main@L3.1
    Format settings, CABAC : Yes
    Format settings, ReFrames : 1 frame
    Codec ID : V_MPEG4/ISO/AVC
    Duration : 1h 37mn
    Bit rate : 3 965 Kbps
    Width : 1 280 pixels
    Height : 720 pixels
    Display aspect ratio : 16:9
    Frame rate mode : Constant
    Frame rate : 29.970 fps
    Color space : YUV
    Chroma subsampling : 4:2:0
    Bit depth : 8 bits
    Scan type : Progressive
    Bits/(Pixel*Frame) : 0.144
    Stream size : 2.71 GiB (93%)
    Default : Yes
    Forced : No

    Audio #1
    ID : 1
    Format : MPEG Audio
    Format version : Version 2.5
    Format profile : Layer 3
    Codec ID : A_MPEG/L3
    Codec ID/Hint : MP3
    Duration : 1h 37mn
    Bit rate mode : Constant
    Bit rate : 128 Kbps
    Channel(s) : 1 channel
    Sampling rate : 11.025 KHz
    Compression mode : Lossy
    Stream size : 89.4 MiB (3%)
    Writing library : LAME3.93
    Default : Yes
    Forced : No

    Audio #2
    ID : 3
    Format : MPEG Audio
    Format version : Version 1
    Format profile : Layer 3
    Mode : Joint stereo
    Mode extension : MS Stereo
    Codec ID : A_MPEG/L3
    Codec ID/Hint : MP3
    Duration : 1h 37mn
    Bit rate mode : Constant
    Bit rate : 96.0 Kbps
    Channel(s) : 2 channels
    Sampling rate : 44.1 KHz
    Compression mode : Lossy
    Stream size : 67.1 MiB (2%)
    Writing library : LAME3.98.2
    Default : No
    Forced : No






    Download
    (Dung lượng: 2.9 GiB)
    http://4share.vn/f/43767273707a7a72/

    Backup 1: https://userscloud.com/casucb9z0j1t
    [/CENTER]

Chia sẻ trang này