Super Eunuch 2 2016 ViE 1080p WEBRip DD5.1 H.264-BTBA ~ Thái Giám Siêu Năng Lực 2 : Lộc Đỉnh Chế | Bành Ngu Khư, Chu Gia Hi, Hoàng Bằng

Thảo luận trong 'Phim SD' bắt đầu bởi v0minh, 7 Tháng sáu 2016.

  1. v0minh

    v0minh Active Member

    Super Eunuch 2 2016 ViE 1080p WEBRip DD5.1 H.264-BTBA

    Thái Giám Siêu Năng Lực 2 : Lộc Đỉnh Chế

    {Thuyết Minh}

    (Bành Ngu Khư, Chu Gia Hi, Hoàng Bằng)


    [​IMG]

    THÔNG TIN PHIM. Click HERE:
    Super Eunuch 2 2016 là phiên bản nhái hài hước của " Lộc Đỉnh Ký ". Vi Tiểu Bảo từ tên lông bông bỗng chốc thành thái giàm và lập được nhiều đại công nhờ khả năng từ trên trời rơi xuống. Với sự ngạo mạng và khả năng " điếc không sợ súng" của mình Tiểu Bảo đã giúp Khang Hy tiêu diệt đại gian thần Ngao Bái và được gã Song Nhi cho mình .


    General
    Complete name : E:\Super Eunuch 2.2016.1080p WEB-DL H.264.BTBA.mkv
    Format : Matroska
    Format version : Version 4 / Version 2
    File size : 1.35 GiB
    Duration : 1h 12mn
    Overall bit rate : 2 661 Kbps
    Encoded date : UTC 2016-06-03 01:28:39
    Writing application : mkvmerge v9.1.0 ('Little Earthquakes') 32bit
    Writing library : libebml v1.3.3 + libmatroska v1.4.4

    Video
    ID : 1
    Format : AVC
    Format/Info : Advanced Video Codec
    Format profile : High@L4
    Format settings, CABAC : Yes
    Format settings, ReFrames : 3 frames
    Codec ID : V_MPEG4/ISO/AVC
    Duration : 1h 12mn
    Bit rate : 2 343 Kbps
    Width : 1 920 pixels
    Height : 760 pixels
    Display aspect ratio : 2.526
    Frame rate mode : Constant
    Frame rate : 25.000 fps
    Color space : YUV
    Chroma subsampling : 4:2:0
    Bit depth : 8 bits
    Scan type : Progressive
    Bits/(Pixel*Frame) : 0.064
    Stream size : 1.19 GiB (88%)
    Default : Yes
    Forced : No
    Color range : Limited
    Color primaries : BT.709
    Transfer characteristics : BT.709
    Matrix coefficients : BT.709

    Audio #1
    ID : 2
    Format : AAC
    Format/Info : Advanced Audio Codec
    Format profile : LC
    Codec ID : A_AAC
    Duration : 1h 12mn
    Bit rate : 192 Kbps
    Channel(s) : 2 channels
    Channel positions : Front: L R
    Sampling rate : 44.1 KHz
    Frame rate : 43.066 fps (1024 spf)
    Compression mode : Lossy
    Delay relative to video : -80ms
    Stream size : 98.7 MiB (7%)
    Language : Chinese
    Default : No
    Forced : No

    Audio #2
    ID : 3
    Format : AAC
    Format/Info : Advanced Audio Codec
    Format profile : LC
    Codec ID : A_AAC
    Duration : 1h 12mn
    Bit rate : 126 Kbps
    Channel(s) : 2 channels
    Channel positions : Front: L R
    Sampling rate : 44.1 KHz
    Frame rate : 43.066 fps (1024 spf)
    Compression mode : Lossy
    Delay relative to video : -80ms
    Stream size : 65.3 MiB (5%)
    Title : TM Tiếng việt
    Language : Vietnamese
    Default : Yes
    Forced : Yes

    SCREENSHOTs

    .mp4.jpg][​IMG]




    Last edited: 21 Tháng bảy 2016

Chia sẻ trang này