[Tâm Lý | Tình Cảm] 3 minutes Partner 2017 HDRip 720p H264 AAC-STY

Thảo luận trong 'Tình cảm - Tâm lý - Hài hước' bắt đầu bởi _gg_107953276876853010282, 20 Tháng tám 2017.

  1. _gg_107953276876853010282

    _gg_107953276876853010282 Well-Known Member

    3 minutes Partner

    * Phim có đề tài Người Lớn. Cân nhắc kỹ trước khi xem *


    [​IMG]



    Mã:
    Format                      : MPEG-4
    Format profile              : Base Media
    Codec ID                    : isom (isom/iso2/avc1/mp41)
    File size                   : 1.77 GiB
    Duration                    : 1 h 18 min
    Overall bit rate            : 3 220 kb/s
    Writing application         : ShanaEncoder
    
    Video
    ID                          : 1
    Format                      : AVC
    Format/Info                 : Advanced Video Codec
    Format profile              : Baseline@L3.1
    Format settings, CABAC      : No
    Format settings, RefFrames  : 1 frame
    Codec ID                    : avc1
    Codec ID/Info               : Advanced Video Coding
    Duration                    : 1 h 18 min
    Bit rate                    : 3 086 kb/s
    Width                       : 1 280 pixels
    Height                      : 720 pixels
    Display aspect ratio        : 16:9
    Frame rate mode             : Variable
    Frame rate                  : 29.970 (29970/1000) FPS
    Minimum frame rate          : 7.493 FPS
    Maximum frame rate          : 29.970 FPS
    Color space                 : YUV
    Chroma subsampling          : 4:2:0
    Bit depth                   : 8 bits
    Scan type                   : Progressive
    Bits/(Pixel*Frame)          : 0.112
    Stream size                 : 1.69 GiB (96%)
    Writing library             : x264 core 150 r2833 df79067
    Encoding settings           : cabac=0 / ref=1 / deblock=1:0:0 / analyse=0x1:0x111 / me=hex / subme=2 / psy=1 / psy_rd=1.00:0.00 / mixed_ref=0 / me_range=16 / chroma_me=1 / trellis=0 / 8x8dct=0 / cqm=0 / deadzone=21,11 / fast_pskip=1 / chroma_qp_offset=0 / threads=6 / lookahead_threads=2 / sliced_threads=0 / nr=0 / decimate=1 / interlaced=0 / bluray_compat=0 / constrained_intra=0 / bframes=0 / weightp=0 / keyint=250 / keyint_min=25 / scenecut=40 / intra_refresh=0 / rc_lookahead=10 / rc=crf / mbtree=1 / crf=18.0 / qcomp=0.60 / qpmin=0 / qpmax=69 / qpstep=4 / ip_ratio=1.40 / aq=1:1.00
    
    Audio
    ID                          : 2
    Format                      : AAC
    Format/Info                 : Advanced Audio Codec
    Format profile              : LC
    Codec ID                    : 40
    Duration                    : 1 h 18 min
    Bit rate mode               : Constant
    Bit rate                    : 128 kb/s
    Channel(s)                  : 2 channels
    Channel positions           : Front: L R
    Sampling rate               : 44.1 kHz
    Frame rate                  : 43.066 FPS (1024 SPF)
    Compression mode            : Lossy
    Stream size                 : 72.0 MiB (4%)
    Default                     : Yes
    Alternate group             : 1
    
    

    Hình trích trong phim :

    [​IMG]

    [​IMG]

    [​IMG]

    [​IMG]

    Tải phim :

Chia sẻ trang này