[Tâm Lý | Tình Cảm] An Affair 2: My Friend's Step Mother 2017 HDrip 1080P

Thảo luận trong 'Tình cảm - Tâm lý - Hài hước' bắt đầu bởi _gg_107953276876853010282, 28 Tháng tám 2017.

  1. _gg_107953276876853010282

    _gg_107953276876853010282 Well-Known Member

    An Affair 2: My Friend's Step Mother

    * Phim có đề tài Người Lớn. Cân nhắc kỹ trước khi xem *

    [​IMG]

    Mã:
    Format                      : MPEG-4
    Format profile              : Base Media
    Codec ID                    : isom (mp41)
    File size                   : 2.06 GiB
    Duration                    : 1 h 9 min
    Overall bit rate mode       : Variable
    Overall bit rate            : 4 219 kb/s
    Encoded date                : UTC 2017-08-24 05:57:23
    Tagged date                 : UTC 2017-08-24 05:57:23
    Writing application         : GOM ENCODER (GMp4Writer 1.0)
    Comment                     : QuickTime 6.0 or greater
    
    Video
    ID                          : 1
    Format                      : MPEG-4 Visual
    Format profile              : Simple@L1
    Format settings, BVOP       : No
    Format settings, QPel       : No
    Format settings, GMC        : No warppoints
    Format settings, Matrix     : Default (H.263)
    Codec ID                    : 20
    Duration                    : 1 h 9 min
    Source duration             : 1 h 9 min
    Bit rate mode               : Variable
    Bit rate                    : 4 084 kb/s
    Maximum bit rate            : 7 145 kb/s
    Width                       : 1 920 pixels
    Height                      : 1 080 pixels
    Display aspect ratio        : 16:9
    Frame rate mode             : Variable
    Frame rate                  : 23.976 FPS
    Minimum frame rate          : 23.970 FPS
    Maximum frame rate          : 24.212 FPS
    Color space                 : YUV
    Chroma subsampling          : 4:2:0
    Bit depth                   : 8 bits
    Scan type                   : Progressive
    Compression mode            : Lossy
    Bits/(Pixel*Frame)          : 0.082
    Stream size                 : 2.00 GiB (97%)
    Source stream size          : 2.00 GiB (97%)
    Writing library             : Lavc54.14.0
    Language                    : English
    Encoded date                : UTC 2017-08-24 05:57:23
    Tagged date                 : UTC 2017-08-24 05:57:23
    mdhd_Duration               : 4198486
    
    Audio
    ID                          : 2
    Format                      : AAC
    Format/Info                 : Advanced Audio Codec
    Format profile              : LC
    Codec ID                    : 40
    Duration                    : 1 h 9 min
    Source duration             : 1 h 9 min
    Bit rate mode               : Variable
    Bit rate                    : 128 kb/s
    Maximum bit rate            : 137 kb/s
    Channel(s)                  : 2 channels
    Channel positions           : Front: L R
    Sampling rate               : 44.1 kHz
    Frame rate                  : 43.066 FPS (1024 SPF)
    Compression mode            : Lossy
    Stream size                 : 64.1 MiB (3%)
    Source stream size          : 64.1 MiB (3%)
    Language                    : English
    Encoded date                : UTC 2017-08-24 05:57:23
    Tagged date                 : UTC 2017-08-24 05:57:23
    mdhd_Duration               : 4198486
    
    

    Hình trích trong phim :

    [​IMG]
    [​IMG]
    [​IMG]
    [​IMG]

    Tải phim :

    http://4share.vn/f/2510131510141616/

    Thư mục tổng hợp phim 18+:

    http://4share.vn/d/3500040304010702

Chia sẻ trang này