[Tâm Lý | Tình Cảm] Emotional Women - I'll Teach You 2017 720P HD NWB

Thảo luận trong 'Tình cảm - Tâm lý - Hài hước' bắt đầu bởi _gg_107953276876853010282, 28 Tháng tám 2017.

  1. _gg_107953276876853010282

    _gg_107953276876853010282 Well-Known Member

    Emotional Women - I'll Teach You

    * Phim có đề tài Người Lớn. Cân nhắc kỹ trước khi xem *


    [​IMG]



    Mã:
    Format                      : Matroska
    Format version              : Version 4 / Version 2
    File size                   : 3.03 GiB
    Duration                    : 1 h 10 min
    Overall bit rate            : 6 124 kb/s
    Movie name                  : Jubowo @ WiKi
    Encoded date                : UTC 2017-08-25 03:52:57
    Writing application         : mkvmerge v8.3.0 ('Over the Horizon') 64bit
    Writing library             : libebml v1.3.1 + libmatroska v1.4.2
    
    Video
    ID                          : 3
    Format                      : AVC
    Format/Info                 : Advanced Video Codec
    Format profile              : Baseline@L3.1
    Format settings, CABAC      : No
    Format settings, RefFrames  : 1 frame
    Codec ID                    : V_MPEG4/ISO/AVC
    Duration                    : 1 h 10 min
    Bit rate                    : 5 922 kb/s
    Width                       : 1 280 pixels
    Height                      : 720 pixels
    Display aspect ratio        : 16:9
    Frame rate mode             : Constant
    Frame rate                  : 29.970 (29970/1000) FPS
    Color space                 : YUV
    Chroma subsampling          : 4:2:0
    Bit depth                   : 8 bits
    Scan type                   : Progressive
    Bits/(Pixel*Frame)          : 0.214
    Stream size                 : 2.93 GiB (97%)
    Default                     : Yes
    Forced                      : No
    
    Audio #1
    ID                          : 1
    Format                      : AAC
    Format/Info                 : Advanced Audio Codec
    Format profile              : LC
    Codec ID                    : A_AAC
    Duration                    : 1 h 10 min
    Bit rate                    : 99.7 kb/s
    Channel(s)                  : 2 channels
    Channel positions           : Front: L R
    Sampling rate               : 22.05 kHz
    Frame rate                  : 21.533 FPS (1024 SPF)
    Compression mode            : Lossy
    Stream size                 : 50.6 MiB (2%)
    Default                     : Yes
    Forced                      : No
    
    Audio #2
    ID                          : 2
    Format                      : AAC
    Format/Info                 : Advanced Audio Codec
    Format profile              : LC
    Codec ID                    : A_AAC
    Duration                    : 1 h 10 min
    Bit rate                    : 99.7 kb/s
    Channel(s)                  : 2 channels
    Channel positions           : Front: L R
    Sampling rate               : 22.05 kHz
    Frame rate                  : 21.533 FPS (1024 SPF)
    Compression mode            : Lossy
    Stream size                 : 50.6 MiB (2%)
    

    Hình trích trong phim :

    [​IMG]

    [​IMG]

    [​IMG]

    Tải phim :

Chia sẻ trang này