[Tâm Lý | Tình Cảm] My Wife's Video KOR HDRip 720p AAC - BIplab

Thảo luận trong 'Tình cảm - Tâm lý - Hài hước' bắt đầu bởi _gg_107953276876853010282, 12 Tháng tám 2017.

  1. _gg_107953276876853010282

    _gg_107953276876853010282 Well-Known Member

    My Wife's Video

    * Phim có đề tài Người Lớn. Cân nhắc kỹ trước khi xem *


    [​IMG]



    Mã:
    Format                      : MPEG-4
    Format profile              : Base Media / Version 2
    Codec ID                    : mp42 (isom/mp42)
    File size                   : 813 MiB
    Duration                    : 1 h 15 min
    Overall bit rate mode       : Variable
    Overall bit rate            : 1 498 kb/s
    Encoded date                : UTC 2017-04-29 15:19:15
    Tagged date                 : UTC 2017-04-29 15:19:15
    gsst                        : 0
    gstd                        : 4551528
    
    Video
    ID                          : 1
    Format                      : AVC
    Format/Info                 : Advanced Video Codec
    Format profile              : High@L3.1
    Format settings, CABAC      : Yes
    Format settings, RefFrames  : 1 frame
    Format settings, GOP        : M=1, N=60
    Codec ID                    : avc1
    Codec ID/Info               : Advanced Video Coding
    Duration                    : 1 h 15 min
    Bit rate                    : 1 303 kb/s
    Maximum bit rate            : 5 370 kb/s
    Width                       : 1 280 pixels
    Height                      : 720 pixels
    Display aspect ratio        : 16:9
    Frame rate mode             : Constant
    Frame rate                  : 30.000 FPS
    Color space                 : YUV
    Chroma subsampling          : 4:2:0
    Bit depth                   : 8 bits
    Scan type                   : Progressive
    Bits/(Pixel*Frame)          : 0.047
    Stream size                 : 707 MiB (87%)
    Tagged date                 : UTC 2017-04-29 15:26:09
    Color range                 : Limited
    Color primaries             : BT.709
    Transfer characteristics    : BT.709
    Matrix coefficients         : BT.709
    
    Audio
    ID                          : 2
    Format                      : AAC
    Format/Info                 : Advanced Audio Codec
    Format profile              : LC
    Codec ID                    : 40
    Duration                    : 1 h 15 min
    Bit rate mode               : Variable
    Bit rate                    : 192 kb/s
    Maximum bit rate            : 202 kb/s
    Channel(s)                  : 2 channels
    Channel positions           : Front: L R
    Sampling rate               : 44.1 kHz
    Frame rate                  : 43.066 FPS (1024 SPF)
    Compression mode            : Lossy
    Stream size                 : 104 MiB (13%)
    Title                       : IsoMedia File Produced by Google, 5-11-2011
    Encoded date                : UTC 2017-04-29 15:24:06
    Tagged date                 : UTC 2017-04-29 15:26:09
    
    

    Hình trích trong phim :

    [​IMG]
    [​IMG]
    [​IMG]
    [​IMG]

    Tải phim :

Chia sẻ trang này