[Tâm Lý | Tình Cảm] Young Husband Young Daddy 2017 HDrip 1080P x264

Thảo luận trong 'Tình cảm - Tâm lý - Hài hước' bắt đầu bởi _gg_107953276876853010282, 18 Tháng mười 2017.

  1. _gg_107953276876853010282

    _gg_107953276876853010282 Well-Known Member

    Young Husband Young Daddy

    * Phim có đề tài Người Lớn. Cân nhắc kỹ trước khi xem *


    [​IMG]



    Mã:
    Format                      : MPEG-4
    Format profile              : Base Media
    Codec ID                    : isom (isom/iso2/avc1/mp41)
    File size                   : 3.08 GiB
    Duration                    : 1 h 20 min
    Overall bit rate            : 5 451 kb/s
    Writing application         : Lavf57.71.100
    Comment                     : Naver.nStore.3gn8EI8+Hrjv4USKzVRD9Q==.k9EyeQfnl5y3xpzehUdqtg==
    
    Video
    ID                          : 1
    Format                      : AVC
    Format/Info                 : Advanced Video Codec
    Format profile              : High@L5
    Format settings, CABAC      : Yes
    Format settings, RefFrames  : 5 frames
    Format settings, GOP        : M=4, N=29
    Codec ID                    : avc1
    Codec ID/Info               : Advanced Video Coding
    Duration                    : 1 h 20 min
    Bit rate                    : 5 120 kb/s
    Width                       : 1 920 pixels
    Height                      : 1 080 pixels
    Display aspect ratio        : 16:9
    Frame rate mode             : Constant
    Frame rate                  : 29.970 (30000/1001) FPS
    Color space                 : YUV
    Chroma subsampling          : 4:2:0
    Bit depth                   : 8 bits
    Scan type                   : Progressive
    Bits/(Pixel*Frame)          : 0.082
    Stream size                 : 2.90 GiB (94%)
    Writing library             : x264 core 148 r2768 d32d7bf
    Encoding settings           : cabac=1 / ref=5 / deblock=1:0:0 / analyse=0x3:0x113 / me=hex / subme=8 / psy=1 / psy_rd=1.00:0.00 / mixed_ref=1 / me_range=16 / chroma_me=1 / trellis=2 / 8x8dct=1 / cqm=0 / deadzone=21,11 / fast_pskip=1 / chroma_qp_offset=-2 / threads=24 / lookahead_threads=4 / sliced_threads=0 / nr=0 / decimate=1 / interlaced=0 / bluray_compat=0 / stitchable=1 / constrained_intra=0 / bframes=3 / b_pyramid=2 / b_adapt=1 / b_bias=0 / direct=3 / weightb=1 / open_gop=0 / weightp=2 / keyint=29 / keyint_min=15 / scenecut=40 / intra_refresh=0 / rc_lookahead=29 / rc=2pass / mbtree=1 / bitrate=5120 / ratetol=1.0 / qcomp=0.60 / qpmin=0 / qpmax=69 / qpstep=4 / cplxblur=20.0 / qblur=0.5 / ip_ratio=1.40 / aq=1:1.00
    
    Audio
    ID                          : 2
    Format                      : AAC
    Format/Info                 : Advanced Audio Codec
    Format profile              : LC
    Codec ID                    : 40
    Duration                    : 1 h 20 min
    Bit rate mode               : Constant
    Bit rate                    : 320 kb/s
    Channel(s)                  : 2 channels
    Channel positions           : Front: L R
    Sampling rate               : 48.0 kHz
    Frame rate                  : 46.875 FPS (1024 SPF)
    Compression mode            : Lossy
    Stream size                 : 185 MiB (6%)
    Default                     : Yes
    Alternate group             : 1
    
    

    Hình trích trong phim :

    [​IMG]

    [​IMG]

    [​IMG]

    [​IMG]

    Tải phim :

Chia sẻ trang này