The Angry Birds Movie 2016 Vie 720p HDTC x264 AC3 ~ Những Chú Chim Nổi Giận | Jason Sudeikis, Josh Gad, Danny McBride

Thảo luận trong 'Phim Hoạt Hình' bắt đầu bởi v0minh, 1 Tháng sáu 2016.

  1. v0minh

    v0minh Active Member

    The Angry Birds Movie 2016 ViE 720p HDTC x264 AC3

    Những Chú Chim Nổi Giận

    [​IMG]

    {Lồng Tiếng}

    (Jason Sudeikis, Josh Gad, Danny McBride)

    [​IMG] Ratings:6.4/10 from 9,154 users

    Thông tin phim. Click HERE:
    The Angry Birds Movie 2016 - Câu chuyện phim xoay quanh Red, chú chim “bị kỳ thị” với cặp lông mày to như 2 miếng rong biển, lúc nào mặt mũi cũng cau có khó chịu. Không hoà nhập được với cộng đồng khiến Red hoàn toàn lạc lõng trên hòn đảo thiên đường của loài chim, may thay cậu còn có 2 người bạn, dù có chút… dở hơi, là Chuck và Bomb. Khi những con lợn xanh đổ bộ lên đảo nhăm nhe xâm chiếm, éo le thay lại chỉ có 3 chú chim bị xã hội xa lánh này là biết chuyện gì đang thực sự xảy ra và nắm trong tay cơ hội để cứu cả hòn đảo.

    English plot

    Flightless birds lead a mostly happy existence, except for Red (Jason Sudeikis), who just can't get past the daily annoyances of life. His temperament leads him to anger management class, where he meets fellow misfits Chuck (Josh Gad) and Bomb. Red becomes even more agitated when his feathered brethren welcome green pigs to their island paradise. As the swine begin to get under his skin, Red joins forces with Chuck and Bomb to investigate the real reason behind their mysterious arrival.



    Format : Matroska
    Format version : Version 4 / Version 2
    File size : 3.00 GiB
    Duration : 1h 36mn
    Overall bit rate mode : Variable
    Overall bit rate : 4 445 Kbps


    Video
    ID : 1
    Format : AVC
    Format/Info : Advanced Video Codec
    Format profile : High@L3.1
    Format settings, CABAC : Yes
    Format settings, ReFrames : 4 frames
    Codec ID : V_MPEG4/ISO/AVC
    Duration : 1h 36mn
    Bit rate mode : Variable
    Bit rate : 3 908 Kbps
    Maximum bit rate : 8 000 Kbps
    Width : 1 280 pixels
    Height : 704 pixels
    Display aspect ratio : 16:9
    Frame rate mode : Constant
    Frame rate : 29.970 fps
    Standard : NTSC
    Color space : YUV
    Chroma subsampling : 4:2:0
    Bit depth : 8 bits
    Scan type : Progressive
    Bits/(Pixel*Frame) : 0.145
    Stream size : 2.64 GiB (88%)
    Language : English
    Default : Yes
    Forced : No
    Color primaries : BT.709
    Transfer characteristics : BT.709
    Matrix coefficients : BT.709



    Audio #1
    ID : 2
    Format : AC-3
    Format/Info : Audio Coding 3
    Mode extension : CM (complete main)
    Format settings, Endianness : Big
    Codec ID : A_AC3
    Duration : 1h 36mn
    Bit rate mode : Constant
    Bit rate : 256 Kbps
    Channel count : 2 channels
    Channel positions : Front: L R
    Sampling rate : 48.0 KHz
    Bit depth : 16 bits
    Compression mode : Lossy
    Delay relative to video : 26ms
    Stream size : 177 MiB (6%)
    Title : English
    Language : English
    Default : No
    Forced : No



    Audio #2
    ID : 3
    Format : AC-3
    Format/Info : Audio Coding 3
    Mode extension : CM (complete main)
    Format settings, Endianness : Big
    Codec ID : A_AC3
    Duration : 1h 36mn
    Bit rate mode : Constant
    Bit rate : 192 Kbps
    Channel count : 2 channels
    Channel positions : Front: L R
    Sampling rate : 44.1 KHz
    Bit depth : 16 bits
    Compression mode : Lossy
    Stream size : 133 MiB (4%)
    Title : Vietnamese
    Language : Vietnamese
    Default : Yes
    Forced : No









    Các bản KHÁC
    720p:
    The Angry Birds Movie 2016 720P TC Unmarked Masteredition x264 Hive-CM8 - {2.87 GiB} Download

    mHD:
    The Angry Birds Movie 2016 Vie 720p HDTC x264 AC3 - {3 GiB} Download | Lồng Tiếng

    BackUp: https://userscloud.com/ntd7fkde8on5

Chia sẻ trang này