The.Mask.1994.mHD-720p.Bluray.AC3.x264-TRiM ( Jim Carrey),Phim Kinh Điển

Thảo luận trong 'Tình cảm - Tâm lý - Hài hước' bắt đầu bởi ghost0bk, 26 Tháng tư 2013.

  1. ghost0bk

    ghost0bk Moderator Staff Member

    [​IMG]


    Mã:
    \The.Mask.1994.mHD-720p.Bluray.AC3.x264-TRiM\The.Mask.1994.mHD-720p.Bluray.AC3.x264-TRiM.mkv
    Format                                   : Matroska
    Format version                           : Version 2
    File size                                : 2.33 GiB
    Duration                                 : 1h 41mn
    Overall bit rate                         : 3 291 Kbps
    Encoded date                             : UTC 2013-04-18 00:29:36
    Writing application                      : mkvmerge v6.1.0 ('Old Devil') built on Mar  2 2013 14:32:37
    Writing library                          : libebml v1.3.0 + libmatroska v1.4.0
    
    Video
    ID                                       : 1
    Format                                   : AVC
    Format/Info                              : Advanced Video Codec
    Format profile                           : High@L4.1
    Format settings, CABAC                   : Yes
    Format settings, ReFrames                : 9 frames
    Codec ID                                 : V_MPEG4/ISO/AVC
    Duration                                 : 1h 41mn
    Bit rate                                 : 2 650 Kbps
    Width                                    : 1 280 pixels
    Height                                   : 718 pixels
    Display aspect ratio                     : 16:9
    Frame rate mode                          : Constant
    Frame rate                               : 23.976 fps
    Color space                              : YUV
    Chroma subsampling                       : 4:2:0
    Bit depth                                : 8 bits
    Scan type                                : Progressive
    Bits/(Pixel*Frame)                       : 0.120
    Stream size                              : 1.83 GiB (79%)
    Writing library                          : x264 core 130 r2273 b3065e6
    Encoding settings                        : cabac=1 / ref=9 / deblock=1:-3:-3 / analyse=0x3:0x113 / me=esa / subme=10 / psy=1 / psy_rd=1.05:0.00 / mixed_ref=1 / me_range=24 / chroma_me=1 / trellis=2 / 8x8dct=1 / cqm=0 / deadzone=21,11 / fast_pskip=0 / chroma_qp_offset=-2 / threads=12 / lookahead_threads=3 / sliced_threads=0 / nr=0 / decimate=0 / interlaced=0 / bluray_compat=0 / constrained_intra=0 / bframes=10 / b_pyramid=2 / b_adapt=2 / b_bias=0 / direct=3 / weightb=1 / open_gop=0 / weightp=2 / keyint=240 / keyint_min=23 / scenecut=40 / intra_refresh=0 / rc=2pass / mbtree=0 / bitrate=2650 / ratetol=1.0 / qcomp=0.60 / qpmin=0 / qpmax=40 / qpstep=4 / cplxblur=20.0 / qblur=0.5 / ip_ratio=1.40 / pb_ratio=1.30 / aq=1:0.60
    Language                                 : English
    Default                                  : Yes
    Forced                                   : No
    Color primaries                          : BT.709
    Transfer characteristics                 : BT.709
    Matrix coefficients                      : BT.709
    
    Audio
    ID                                       : 2
    Format                                   : AC-3
    Format/Info                              : Audio Coding 3
    Mode extension                           : CM (complete main)
    Format settings, Endianness              : Big
    Codec ID                                 : A_AC3
    Duration                                 : 1h 41mn
    Bit rate mode                            : Constant
    Bit rate                                 : 640 Kbps
    Channel(s)                               : 6 channels
    Channel positions                        : Front: L C R, Side: L R, LFE
    Sampling rate                            : 48.0 KHz
    Bit depth                                : 16 bits
    Compression mode                         : Lossy
    Stream size                              : 463 MiB (19%)
    Default                                  : Yes
    Forced                                   : No
    
    Menu
    00:00:00.000                             : en:00:00:00.000
    00:03:38.343                             : en:00:03:38.343
    00:06:59.377                             : en:00:06:59.377
    00:09:28.693                             : en:00:09:28.693
    00:12:18.029                             : en:00:12:18.029
    00:14:55.770                             : en:00:14:55.770
    00:17:48.609                             : en:00:17:48.609
    00:22:53.872                             : en:00:22:53.872
    00:26:33.550                             : en:00:26:33.550
    00:30:34.624                             : en:00:30:34.624
    00:33:57.369                             : en:00:33:57.369
    00:37:26.035                             : en:00:37:26.035
    00:39:43.256                             : en:00:39:43.256
    00:42:54.614                             : en:00:42:54.614
    00:46:03.052                             : en:00:46:03.052
    00:48:35.079                             : en:00:48:35.079
    00:52:56.465                             : en:00:52:56.465
    00:55:48.345                             : en:00:55:48.345
    01:00:47.310                             : en:01:00:47.310
    01:04:04.716                             : en:01:04:04.716
    01:09:00.720                             : en:01:09:00.720
    01:16:01.182                             : en:01:16:01.182
    01:19:52.621                             : en:01:19:52.621
    01:26:11.833                             : en:01:26:11.833
    01:28:49.741                             : en:01:28:49.741
    01:32:57.655                             : en:01:32:57.655
    
    
    [​IMG]
    [​IMG]

    [​IMG]
    Release Date : 1994
    Genre : Action | Comedy | Crime
    Cast : Jim Carrey, Cameron Diaz and Peter Riegert
    Xếp hạng: 6.7/10 - 153171 phiếu
    The Mask (1994) - IMDb
    Subtitle : VietNam, English
    Stanley Ipkiss là một nhân viên ngân hàng là một người đàn ông rất tốt bụng. Thật không may, do anh quá tốt bụng với mọi người nên hay chuốc lấy những phiền phức.Vào một ngày tồi tệ nhất của cuộc đời mình, anh vô tình tìm thấy một mặt nạ giống với Vị thần Loki (Thần tinh nghịch). Khi ông anh đeo nó lên, anh trở thành một người khác hẳn: một người đàn ông hoạt hình lãng mạn hoang dã. Tuy nhiên, một thời gian trùm tội phạm nhỏ, Dorian Tyrel, đi qua nhân vật này được đặt tên là "The Mask" của các phương tiện truyền thông. Sự việc tiếp theo thế nào mời các bạn xem phim.
    Một bộ phim được đóng bởi Kim Carrey, khá là hài hước, sẽ cho bạn những phút giây thư giản thoải mái nhất.



    Mã:
    http://up.4share.vn/d/6b59535d5b58535e

Chia sẻ trang này