[Viễn Tưởng] Avengers: Infinity War 2018 Digital Extras 1080p AMZN WEB-DL DDP5.1 H.264-NTG ~ Hậu Trường

Thảo luận trong 'm-1080p' bắt đầu bởi hungdaita, 5 Tháng tám 2018.

  1. hungdaita

    hungdaita Well-Known Member

    Avengers: Infinity War 2018 Digital Extras 1080p AMZN WEB-DL DDP5.1 H.264-NTG
    {Internal}
    Cuộc Chiến Vô Cực | Siêu Bom Tấn | Rating: 8.8
    Robert Downey Jr., Chris Hemsworth, Mark Ruffalo, Scarlett Johansson


    [​IMG]


    [​IMG]




    General
    Unique ID : 318249177616887927908275912935834718 (0x3D4AE55975A2791BC9CA6EFC11845E)
    Format : Matroska
    Format version : Version 4 / Version 2
    File size : 3.61 GiB
    Duration : 1 h 17 min
    Overall bit rate : 6 637 kb/s
    Encoded date : UTC 2018-07-31 18:43:35
    Writing application : mkvmerge v21.0.0 ('Tardigrades Will Inherit The Earth') 64-bit
    Writing library : libebml v1.3.5 + libmatroska v1.4.8

    Video
    ID : 1
    Format : AVC
    Format/Info : Advanced Video Codec
    Format profile : High@L4
    Format settings : CABAC / 4 Ref Frames
    Format settings, CABAC : Yes
    Format settings, ReFrames : 4 frames
    Codec ID : V_MPEG4/ISO/AVC
    Duration : 1 h 17 min
    Bit rate : 5 995 kb/s
    Width : 1 920 pixels
    Height : 1 080 pixels
    Display aspect ratio : 16:9
    Frame rate mode : Constant
    Frame rate : 23.976 (24000/1001) FPS
    Color space : YUV
    Chroma subsampling : 4:2:0
    Bit depth : 8 bits
    Scan type : Progressive
    Bits/(Pixel*Frame) : 0.121
    Stream size : 3.26 GiB (90%)
    Default : Yes
    Forced : No
    Color range : Limited
    Color primaries : BT.709
    Transfer characteristics : BT.709
    Matrix coefficients : BT.709

    Audio
    ID : 2
    Format : E-AC-3
    Format/Info : Enhanced Audio Coding 3
    Codec ID : A_EAC3
    Duration : 1 h 17 min
    Bit rate mode : Constant
    Bit rate : 640 kb/s
    Channel(s) : 6 channels
    Channel positions : Front: L C R, Side: L R, LFE
    Sampling rate : 48.0 kHz
    Frame rate : 187.500 FPS (256 SPF)
    Compression mode : Lossy
    Delay relative to video : 11 ms
    Stream size : 356 MiB (10%)
    Language : English
    Service kind : Complete Main
    Default : Yes
    Forced : No

    Text
    ID : 3
    Format : UTF-8
    Codec ID : S_TEXT/UTF8
    Codec ID/Info : UTF-8 Plain Text
    Duration : 1 h 17 min
    Bit rate : 112 b/s
    Count of elements : 1529
    Stream size : 64.1 KiB (0%)
    Title : SDH
    Language : English
    Default : No
    Forced : No

    Menu
    00:00:00.000 : en:The Directors' Roundtable: I Am Iron Man
    00:03:08.259 : en:The Directors' Roundtable: Character First
    00:07:48.259 : en:The Directors' Roundtable: Live From Prague
    00:11:36.259 : en:The Directors' Roundtable: Secret Identities
    00:13:42.259 : en:The Directors' Roundtable: Unexpected Comedy
    00:17:31.259 : en:The Directors' Roundtable: Iconic Roles
    00:18:47.259 : en:The Directors' Roundtable: Meeting Coppola
    00:21:57.259 : en:The Directors' Roundtable: Passing The Baton
    00:30:15.259 : en:The Directors' Roundtable: From Page To Screen
    00:32:55.259 : en:Gag Reel
    00:35:01.259 : en:Strange Alchemy
    00:40:14.259 : en:The Mad Titan
    00:46:47.259 : en:Beyond the Battle: Titan
    00:56:25.259 : en:Beyond the Battle: Wakanda
    01:07:24.259 : en : Deleted Scenes





    Sau chuyến hành trình độc nhất vô nhị không ngừng mở rộng và phát triển vụ trũ điện ảnh Marvel, bộ phim Avengers: Cuộc Chiến Vô Cực sẽ mang đến màn ảnh trận chiến cuối cùng khốc liệt nhất mọi thời đại. Biệt đội Avengers và các đồng minh siêu anh hùng của họ phải chấp nhận hy sinh tất cả để có thể chống lại kẻ thù hùng mạnh Thanos trước tham vọng hủy diệt toàn bộ vũ trụ của hắn ...



    [​IMG]

    [​IMG] [​IMG] [​IMG] [​IMG] [​IMG] [​IMG] [​IMG] [​IMG] [​IMG] [​IMG] [​IMG] [​IMG] [​IMG] [​IMG] [​IMG] [​IMG] [​IMG]

    Full Screenshots:

    ☆☆☆ Gallery => Click Vào Link Để Xem Ảnh Lớn ☆☆☆

    [​IMG]



    ☆☆☆ Click Vào Link Để Xem Trailer ☆☆☆

    [​IMG]

    One Link :

    [​IMG]

    [HIDE]


    [/HIDE]

    [​IMG]

    [HIDE]
    Avengers: Infinity War 2018 Digital Extras 1080p AMZN WEB-DL DDP5.1 H.264-NTG {Internal} = 3.61 GB => Hậu trường 1h 17m

    Avengers: Infinity War 2018 1080p BluRay DTS-HD MA 7.1 x264-DON {Sub Việt Mux Sẵn} = 20.90 GB

    Avengers: Infinity War 2018 1080p BluRay DTS x264-DON {}[/Sub Việt Mux SẵnCOLOR] = 17.36 GB

    Avengers: Infinity War 2018 1080p BluRay DDP7.1 x264-NCmt {Internal} = 17.07 GB

    Avengers: Infinity War 2018 1080p BluRay DTS x264-LoRD {Internal} = 16.80 GB

    Avengers: Infinity War 2018 1080p BluRay DTS x264-WiKi {Internal} = 17.40 GB

    Avengers: Infinity War 2018 1080p BluRay DTS-HD MA 7.1 x264-HDChina {Internal} = 19.73 GB

    Avengers: Infinity War 2018 1080p BluRay DTS-HD MA 7.1 x264-CHD {Internal} = 18.68 GB

    Avengers: Infinity War 2018 ViE 1080p BluRay DTS x264-CHD {Sub Việt | Thuyết Minh} = 16.70 GB

    Avengers: Infinity War 2018 1080p BluRay DTS x264-CHD {Internal} = 15.14 GB

    Avengers: Infinity War 2018 ViE 1080p BluRay DTS x264-Replica {Sub Việt | Thuyết Minh} = 13.6 GB

    Avengers: Infinity War 2018 1080p BluRay DTS x264-Replica {Scene} = 12.02 GB

    Avengers: Infinity War 2018 720p BluRay DTS x264-SPARKS {Scene} = 6.56 GB

    Avengers: Infinity War 2018 ViE 1080p WEB-DL DTS H.264-SiGMA {Sub Việt | Thuyết Minh} = 7.98 GB

    Avengers: Infinity War 2018 ViE 1080p WEB-DL DD5.1 H.264-EVO {Sub Việt | Thuyết Minh} = 5.80 GB

    Avengers: Infinity War 2018 1080p WEB-DL DD+5.1 H.264-SiGMA {Internal} = 6.40 GB

    Avengers: Infinity War 2018 1080p WEB-DL DD5.1 H.264-EVO {Internal} = 5.12 GB

    Xem các bản khác:
    Link 4Share Phim Hot ~ hungdaita
    [/HIDE]


    [​IMG]


    [​IMG]

    Phụ Đề Việt: {Đã Có}

    https://www.fshare.vn/file/68GAQKCRKAH7 Cho BluRay
    https://www.fshare.vn/file/H8F41I776Y38 Cho WEB-DL
    Subscene - Subtitles for this Movie


    Audio English DTS-HD MA 7.1-HDT : {Đã Có}

    Audio English DTS 5.1-HDT
    Audio English DTS-HD MA 7.1-HDT


    [​IMG]

Chia sẻ trang này