[Việt Sub] The Amazing Spiderman 2 2014 SUBVIET 720p HDScr x264 AC3-SmY - Người Nhện Siêu Đẳng 2

Thảo luận trong 'Hành động - Chiến tranh - Viễn tưởng' bắt đầu bởi kulee, 24 Tháng năm 2014.

  1. kulee

    kulee Moderator

    The Amazing Spiderman 2 2014 SUBVIET 720p HDScr x264 AC3-SmY
    Người Nhện Siêu Đẳng 2
    Andrew Garfield, Emma Stone, Jamie Foxx
    Ratings: 7.8/10 from 18,037 users [​IMG]



    [​IMG]

    [​IMG]
    Mã:
    Format : Matroska
    File size : 2.70 GiB
    Duration : 2h 16mn
    Overall bit rate : 2 829 Kbps
    Encoded date : UTC 2010-02-22 21:41:31
    Writing application : mkvmerge v5.9.0 ('On The Loose') built on Dec 9 2012 15:37:01
    Writing library : libebml v1.3.0 + libmatroska v1.4.0
    Video #1
    ID : 1
    Format : AVC
    Format/Info : Advanced Video Codec
    Format profile : High@L3.1
    Format settings, CABAC : Yes
    Format settings, ReFrames : 4 frames
    Muxing mode : Container profile=Unknown@3.1
    Codec ID : V_MPEG4/ISO/AVC
    Duration : 2h 16mn
    Bit rate : 2 581 Kbps
    Nominal bit rate : 2 650 Kbps
    Width : 1 280 pixels
    Height : 528 pixels
    Display aspect ratio : 2.40:1
    Frame rate : 23.976 fps
    Resolution : 8 bits
    Colorimetry : 4:2:0
    Scan type : Progressive
    Bits/(Pixel*Frame) : 0.159
    Stream size : 2.46 GiB (91%)
    Writing library : x264 core 116 r2074 2641b9e
    
    Audio #2
    ID : 2
    Format : AC-3
    Format/Info : Audio Coding 3
    Codec ID : A_AC3
    Duration : 2h 16mn
    Bit rate mode : Constant
    Bit rate : 192 Kbps
    Channel(s) : 2 channels
    Channel positions : L R
    Sampling rate : 48.0 KHz
    Stream size : 188 MiB (7%)
    [​IMG]
    [​IMG]
    [​IMG]
    [​IMG]
    [​IMG]
    [​IMG]
    [​IMG]
    [​IMG]


    [​IMG]
    [​IMG]


    1 Link ~ 2,71GB

    [​IMG]
    4SHARE
    ALL VESIONS 720p & 1080p & ReMux
    [​IMG]
    SUB
    [​IMG]

    Kho Phim HD 4SHARE Update Hằng Ngày

    [​IMG]

Chia sẻ trang này