[ViệtSub] The Amazing Spider-Man 2 2014 720p WEB-DL DD5.1 H.264-HDCLUB - Người Nhện Siêu Đẳng 2

Thảo luận trong 'BRrip...' bắt đầu bởi kulee, 25 Tháng bảy 2014.

  1. kulee

    kulee Moderator

    The Amazing Spider-Man 2 2014 SUBVIET 720p WEB-DL DD5.1 H.264-HDCLUB
    Người Nhện Siêu Đẳng 2
    Andrew Garfield, Emma Stone, Jamie Foxx
    Ratings: 7.8/10 from 18,037 users [​IMG]



    [​IMG]

    [​IMG]
    Mã:
    General
    Unique ID                                : 241905197038212168256777155408165490619 (0xB5FD3F0B696532879DC527BC67FA4FBB)
    Format                                   : Matroska
    Format version                           : Version 2
    File size                                : 4.42 GiB
    Duration                                 : 2h 21mn
    Overall bit rate                         : 4 474 Kbps
    Movie name                               : The Amazing Spider-Man 2 (2014) - Release for HDCLUB
    Encoded date                             : UTC 2014-07-23 22:50:47
    Writing application                      : mkvmerge v3.4.0 ('Rapunzel') built on May 15 2010 09:38:20
    Writing library                          : libebml v0.8.0 + libmatroska v0.9.0
    
    Video
    ID                                       : 1
    Format                                   : AVC
    Format/Info                              : Advanced Video Codec
    Format profile                           : Main@L3.1
    Format settings, CABAC                   : No
    Format settings, ReFrames                : 2 frames
    Codec ID                                 : V_MPEG4/ISO/AVC
    Duration                                 : 2h 21mn
    Bit rate                                 : 4 001 Kbps
    Width                                    : 1 280 pixels
    Height                                   : 532 pixels
    Display aspect ratio                     : 2.40:1
    Frame rate mode                          : Constant
    Frame rate                               : 23.976 fps
    Color space                              : YUV
    Chroma subsampling                       : 4:2:0
    Bit depth                                : 8 bits
    Scan type                                : Progressive
    Bits/(Pixel*Frame)                       : 0.245
    Stream size                              : 3.96 GiB (89%)
    Title                                    : The Amazing Spider-Man 2 (2014) - Release for HDCLUB
    Language                                 : English
    Default                                  : Yes
    Forced                                   : No
    Color primaries                          : BT.709
    Transfer characteristics                 : BT.709
    Matrix coefficients                      : BT.709
    
    Audio
    ID                                       : 2
    Format                                   : AC-3
    Format/Info                              : Audio Coding 3
    Mode extension                           : CM (complete main)
    Format settings, Endianness              : Big
    Codec ID                                 : A_AC3
    Duration                                 : 2h 21mn
    Bit rate mode                            : Constant
    Bit rate                                 : 384 Kbps
    Channel(s)                               : 6 channels
    Channel positions                        : Front: L C R, Side: L R, LFE
    Sampling rate                            : 48.0 KHz
    Bit depth                                : 16 bits
    Compression mode                         : Lossy
    Stream size                              : 389 MiB (9%)
    Title                                    : AC3 5.1 @ 384 kbps
    Language                                 : English
    Default                                  : Yes
    Forced                                   : No
    [​IMG]
    [​IMG] [​IMG] [​IMG] [​IMG] [​IMG] [​IMG]
    [​IMG]
    [​IMG]
    [​IMG]
    [​IMG]
    [​IMG]
    [​IMG]
    [​IMG]


    [​IMG]
    [​IMG]


    1 Link ~


    [​IMG]
    4SHARE

    ALL VESIONS 720p & 1080p & ReMux

    [​IMG]
    SUB
    [​IMG]

    Kho Phim HD 4SHARE Update Hằng Ngày

    [​IMG]
  2. s01643664604

    s01643664604 New Member

    tập này GWEN chết xem mà thấy nản :(

Chia sẻ trang này